Сегодня идет свободное скачивание без начисления Download

Ангелы Чарли / Charlie's Angels (МакДжи) [2000, боевик, триллер, комедия, криминал, приключения, BDRip-AVC] [AVO] (Л.Володарский) + [DUB]

Ответить на тему
 
Автор
Сообщение

maxkiller ®

Пол:

Стаж: 3 года 10 месяцев

Сообщений: 282

Торрент-статистика

Пост 05-Янв-2014 23:18

[Цитировать]

Ангелы Чарли / Charlie's Angels
Год выхода: 2000
Страна: США, Германия
Жанр: боевик, триллер, комедия, криминал, приключения
Продолжительность: 01:38:24
Перевод №1: Авторский (одноголосный) [Л.Володарский]
Перевод №2: Профессиональный (дублированный)
Субтитры: Русские, Английские (отключаемые)
Режиссер: МакДжи
В ролях: Кэмерон Диаз, Дрю Бэрримор, Люси Лью, Билл Мюррэй, Сэм Рокуэлл, Келли Линч, Тим Карри, Криспин Гловер, Мэтт ЛеБлан
О фильме: Ангелы Чарли, суперсекретное элитное спецподразделение, которому доверяют только невыполнимые задания. С помощью новейших технологий, современного оружия, боевых искусств и убийственного женского очарования Ангелы Чарли творят чудеса. Но настоящим испытанием станет лишь это последнее задание

Качество: BDRip-AVC
Формат: MKV
Видео кодек: x.264
Аудио кодек: AC3
Видео: AVC, 1024x432 (2,40:1), 23.976 fps, 1470 kbps, 139 bit/pixel
Аудио #1: 48 kHz, AC3 Dolby Digital, 2/0 (L,R) ch, ~192.00 kbps avg [Л.Володарский]
Аудио #2: 48 kHz, AC3 Dolby Digital, 6 ch, ~448.00 kbps [DUB]

MediaInfo

General
Unique ID : 253724887621435099849394591249996086652 (0xBEE1A2C86B16CB7C9999493D0D027D7C)
Complete name : E:\INTERNET\Charlie's Angels.2000.BDRip-AVC.[AVO](Volodarskiy)+[DUB].mkv
Format : Matroska
File size : 1.45 GiB
Duration : 1h 38mn
Overall bit rate : 2 111 Kbps
Encoded date : UTC 2014-01-05 18:51:03
Writing application : mkvmerge v6.1.0 ('Old Devil') built on Mar 4 2013 09:10:42
Writing library : libebml v1.3.0 + libmatroska v1.4.0
Video
ID : 1
Format : AVC
Format/Info : Advanced Video Codec
Format profile : [email protected]
Format settings, CABAC : Yes
Format settings, ReFrames : 11 frames
Codec ID : V_MPEG4/ISO/AVC
Duration : 1h 38mn
Bit rate : 1 470 Kbps
Width : 1 024 pixels
Height : 432 pixels
Display aspect ratio : 2.35:1
Frame rate : 23.976 fps
Color space : YUV
Chroma subsampling : 4:2:0
Bit depth : 8 bits
Scan type : Progressive
Bits/(Pixel*Frame) : 0.139
Stream size : 1 006 MiB (68%)
Writing library : x264 core 130 r2273 b3065e6
Encoding settings : cabac=1 / ref=11 / deblock=1:-1:-1 / analyse=0x3:0x133 / me=umh / subme=10 / psy=1 / psy_rd=1.20:0.06 / mixed_ref=1 / me_range=32 / chroma_me=1 / trellis=2 / 8x8dct=1 / cqm=0 / deadzone=21,11 / fast_pskip=0 / chroma_qp_offset=-3 / threads=3 / lookahead_threads=1 / sliced_threads=0 / nr=0 / decimate=1 / interlaced=0 / bluray_compat=0 / constrained_intra=0 / bframes=9 / b_pyramid=2 / b_adapt=2 / b_bias=0 / direct=3 / weightb=1 / open_gop=0 / weightp=2 / keyint=250 / keyint_min=23 / scenecut=40 / intra_refresh=0 / rc_lookahead=50 / rc=2pass / mbtree=1 / bitrate=1470 / ratetol=1.0 / qcomp=0.60 / qpmin=0 / qpmax=69 / qpstep=4 / cplxblur=20.0 / qblur=0.5 / ip_ratio=1.40 / aq=1:1.00
Audio #1
ID : 2
Format : AC-3
Format/Info : Audio Coding 3
Mode extension : CM (complete main)
Codec ID : A_AC3
Duration : 1h 38mn
Bit rate mode : Constant
Bit rate : 192 Kbps
Channel(s) : 2 channels
Channel positions : Front: L R
Sampling rate : 48.0 KHz
Bit depth : 16 bits
Compression mode : Lossy
Stream size : 135 MiB (9%)
Title : ÂÎËÎÄÀÐÑÊÈÉ
Language : Russian
Audio #2
ID : 3
Format : AC-3
Format/Info : Audio Coding 3
Mode extension : CM (complete main)
Codec ID : A_AC3
Duration : 1h 38mn
Bit rate mode : Constant
Bit rate : 448 Kbps
Channel(s) : 6 channels
Channel positions : Front: L C R, Side: L R, LFE
Sampling rate : 48.0 KHz
Bit depth : 16 bits
Compression mode : Lossy
Stream size : 315 MiB (21%)
Title : Äóáëèðîâàííûé
Language : Russian
Text #1
ID : 4
Format : UTF-8
Codec ID : S_TEXT/UTF8
Codec ID/Info : UTF-8 Plain Text
Language : Russian
Text #2
ID : 5
Format : UTF-8
Codec ID : S_TEXT/UTF8
Codec ID/Info : UTF-8 Plain Text
Language : English

Скриншоты

Вне форума [Профиль] [ЛС]
Показать сообщения:    
Ответить на тему

Текущее время: Сегодня 05:08

Часовой пояс: GMT + 3



Вы не можете начинать темы
Вы не можете отвечать на сообщения
Вы не можете редактировать свои сообщения
Вы не можете удалять свои сообщения
Вы не можете голосовать в опросах
Вы не можете прикреплять файлы к сообщениям
Вы не можете скачивать файлы