Сегодня идет свободное скачивание без начисления Download

Ричард Львиное Сердце / King Richard and the Crusaders (Дэвид Батлер)[1954.,Мелодрама, Приключения, Военный, История] DVDRip [H.264]

Ответить на тему
 
Автор
Сообщение

sashau ®

Пол:

Стаж: 4 года 11 месяцев

Сообщений: 3785

Торрент-статистика

Пост 08-Янв-2014 18:08

[Цитировать]

Ричард Львиное Сердце / King Richard and the Crusaders -«Theirs was the mightiest challenge of them all!»- Год выпуска: 1954
Жанр: Мелодрама, Приключения, Военный, История
Производство: США/Warner Bros. Pictures
Описание фильма:
Ричард I «Львиное Сердце» — английский король из рода Плантагенетов, правивший в 1189 — 1199 гг. Сын Генриха II и Элеоноры Гиенской. Этот фильм рассказывает о самых бурных годах правления Ричарда «Львиное сердце». В лейтмотив картины положены правдивые истории летописей о любви шотландца Кеннета, и кузины короля — Леди Эдит, а также о влиянии на правление монарха предводителя арабов Саладина, который под видом лекаря проник в лагерь христиан и стал одним из самых приближенных к королю.
Фильм снят по роману Вальтера Скотта "Талисман".
Режиссер: Дэвид Батлер
Сценарий: Джон Твист, Вальтер Скотт
Продюсер: Генри Бланк
Актеры: Рекс Харрисон, Вирджиния Майо, Джордж Сэндерс, Лоуренс Харви, Роберт Дуглас, Майкл Пэйт, Пола Рэймонд, Лестер Мэтьюз, Энтони Юстрел, Генри Корден
Продолжительность: 01:53:48
Качество видео: DVDRip
Перевод: Многоголосый закадровый (Светла)
Субтитры: Отсутствуют

Дата мировой премьеры: 7 августа 1954
Видеокодек: MPEG-4 AVC/H.264
Битрейт видео: ~1636 Кбит/сек
Размер кадра: 720x304
Аудиокодек: AC3 2.0
Битрейт аудио: 192 Кбит/сек

MediaInfo:

General
Unique ID : 248315552116284888949142634912012398826 (0xBACFD5F39107CD51BEC65D29DBC570EA)
Complete name : F:\Downloads\Ричард Львиное Сердце.mkv
Format : Matroska
Format version : Version 4 / Version 2
File size : 1.45 GiB
Duration : 1h 53mn
Overall bit rate : 1 830 Kbps
Encoded date : UTC 2014-01-08 06:08:44
Writing application : mkvmerge v6.4.1 ('Omega Point') built on Sep 16 2013 22:05:10
Writing library : libebml v1.3.0 + libmatroska v1.4.1
Video
ID : 1
Format : AVC
Format/Info : Advanced Video Codec
Format profile : [url=mailto:[email protected]][email protected][/url]
Format settings, CABAC : Yes
Format settings, ReFrames : 8 frames
Codec ID : V_MPEG4/ISO/AVC
Duration : 1h 53mn
Bit rate : 1 636 Kbps
Width : 720 pixels
Height : 304 pixels
Display aspect ratio : 2.35:1
Frame rate mode : Constant
Frame rate : 23.976 fps
Color space : YUV
Chroma subsampling : 4:2:0
Bit depth : 8 bits
Scan type : Progressive
Bits/(Pixel*Frame) : 0.312
Stream size : 1.27 GiB (88%)
Title : King Richard and the Crusaders
Writing library : x264 core 130 r2273 b3065e6
Encoding settings : cabac=1 / ref=8 / deblock=1:0:0 / analyse=0x3:0x133 / me=umh / subme=9 / psy=1 / psy_rd=1.00:0.00 / mixed_ref=1 / me_range=32 / chroma_me=1 / trellis=2 / 8x8dct=1 / cqm=0 / deadzone=21,11 / fast_pskip=0 / chroma_qp_offset=-2 / threads=6 / lookahead_threads=1 / sliced_threads=0 / nr=0 / decimate=1 / interlaced=0 / bluray_compat=0 / constrained_intra=0 / bframes=3 / b_pyramid=2 / b_adapt=2 / b_bias=0 / direct=3 / weightb=1 / open_gop=0 / weightp=2 / keyint=250 / keyint_min=25 / scenecut=40 / intra_refresh=0 / rc_lookahead=60 / rc=2pass / mbtree=1 / bitrate=1636 / ratetol=1.0 / qcomp=0.60 / qpmin=10 / qpmax=51 / qpstep=4 / cplxblur=20.0 / qblur=0.5 / ip_ratio=1.40 / aq=1:1.00
Language : English
Default : Yes
Forced : No
Audio
ID : 2
Format : AC-3
Format/Info : Audio Coding 3
Mode extension : CM (complete main)
Format settings, Endianness : Big
Codec ID : A_AC3
Duration : 1h 53mn
Bit rate mode : Constant
Bit rate : 192 Kbps
Channel(s) : 2 channels
Channel positions : Front: L R
Sampling rate : 48.0 KHz
Bit depth : 16 bits
Compression mode : Lossy
Stream size : 156 MiB (10%)
Title : Профессиональный многоголосый (СВЕТЛА)
Language : Russian
Default : Yes
Forced : No
Скриншоты:                    
Вне форума [Профиль] [ЛС]
Похожие темы
Форум Тема Автор Торрент Отв. Посл. сообщение
./templates/default/images/folder_dl.gif Для детей, родителей и учителей Ричард Темплар | Правила родителей [2009] [FB2] UndegraundMen
1 | 0

0 | 1174

2

2013-08-10 17:47
UndegraundMen Последнее
./templates/default/images/folder_dl.gif Обучающее видео Ричард Докинз | Бог как иллюзия. Лекция в Калифорнийском университете в Беркли / The God Delusion. UC Berkeley Event (2008) WEBRip [EN, RU] Omen
1 | 0

0 | 23

11

2015-04-27 20:17
Omen Последнее
./templates/default/images/folder_dl.gif Зарубежное кино Ешь богатых / Сожри богатея / Eat the Rich (Питер Ричардсон / Peter Richardson) [1987, Великобритания, комедия, WEB-DL 720p] AVO (А. Дольский) + Sub Eng + Original Eng Omen
1 | 0

0 | 320

5

2015-10-08 06:15
Omen Последнее
./templates/default/images/folder_dl.gif Психология, Тренинг, Саморазвитие Ричард Темплар | Правила достижения цели. Как получать то, что хочешь (2014) [FB2, DOCX] moralis
1 | 0

0 | 199

5

2016-03-11 18:46
moralis Последнее
./templates/default/images/folder_dl.gif Книги для IPhone, IPod, Apple Бахман Ричард \ Кинг Стивен - Регуляторы [vaska hulya (ЛИ), 2016, Триллер,мистика, 128 kbps], M4B VHS
1 | 0

0 | 269

1

2016-04-05 22:47
VHS Последнее
Показать сообщения:    
Ответить на тему

Текущее время: Сегодня 14:53

Часовой пояс: GMT + 3



Вы не можете начинать темы
Вы не можете отвечать на сообщения
Вы не можете редактировать свои сообщения
Вы не можете удалять свои сообщения
Вы не можете голосовать в опросах
Вы не можете прикреплять файлы к сообщениям
Вы не можете скачивать файлы