Сегодня идет свободное скачивание без начисления Download

Нечто / The Thing (Джон Карпентер / John Carpenter) [1982, Фантастика, Триллер, Ужасы, BDRip]

Ответить на тему
 
Автор
Сообщение

Omen ®

Стаж: 4 года 1 месяц

Сообщений: 194359

Торрент-статистика

Пост 24-Ноя-2011 12:33

[Цитировать]

Нечто / The Thing (1982) BDRip- Русское название: Нечто
Оригинальное название: The Thing
Год выпуска: 1982
Жанр: Ужасы, Фантастика
Описание фильма:
На американскую антарктическую станцию прибегает собака. Но это она только с виду - собака! На самом деле вовсе она и не собака, а жуткий монстр, который пожирает зверей/людей, а потом искусно притворяется ими, норовя подмять под себя всю Землю. Но на пути распоясавшегося монстра встает отважный вертолетчик МакРиди (Курт Рассел).
"Нечто" считается не только лучшим фильмом известного специалиста по ужасам, режиссера Джона Карпентера, но и пожалуй одиним из лучших фантастических фильмов ушедшего двадцатого века. Картина исключительно напряженная. Отличная, страшная музыка. Спецэффекты начала восьмидесятых сделаны настолько тщательно, что даже сегодня смотрятся более чем достойно.
Режиссер: Джон Карпентер / John Carpenter
Актеры: Курт Расселл, Дэвид Кленнон, Кейт Дэвид, Ричард Мазур, Т. К. Картер, Уилфорд Бримли, Джоэл Полис, Дональд Моффат, Питер Мэлоуни, Ричард Дайсарт, Чарльз Хэллахан
Продолжительность: 01:48:42
Перевод: Многоголосый закадровый. ОРТ, НТВ+, СТС, Киномания. Авторский одноголосый. Гаврилов, Гоблин, Горчаков, Михалев. Оригинал. Английский

Дата мировой премьеры: 25 июня 1982
Дата выхода DVD релиза: 23 сентября 2008, «Lizard Cinema Trade»
Качество видео: BDRip
Видеокодек: Xvid
Видео: 720х304 пикс, 2025 Кбит/сек, 23,976 кадр/сек, 0.386 бит
Аудио 1: AC3, 192 Кбит/сек, 2 канала, 48,0 КГц, Многоголосый закадровый ОРТ
Аудио 2: AC3, 192 Кбит/сек, 2 канала, 48,0 КГц, Многоголосый закадровый НТВ+
Аудио 3: AC3, 192 Кбит/сек, 2 канала, 48,0 КГц, Многоголосый закадровый СТС
Аудио 4: AC3, 384 Кбит/сек, 6 канала, 48,0 КГц, Многоголосый закадровый Киномания
Аудио 5: AC3, 448 Кбит/сек, 6 канала, 48,0 КГц, Авторский одноголосый Гаврилов
Аудио 6: AC3, 384 Кбит/сек, 6 канала, 48,0 КГц, Авторский одноголосый Гоблин
Аудио 7: AC3, 448 Кбит/сек, 6 канала, 48,0 КГц, Авторский одноголосый Горчаков
Аудио 8: AC3, 448 Кбит/сек, 6 канала, 48,0 КГц, Авторский одноголосый Михалев
Аудио 9: AC3, 448 Кбит/сек, 6 канала, 48,0 КГц, Оригинал АнглийскийСкриншоты:
       
-

MediaInfo

Код:
Формат                           : AVI
Формат/Информация                : Audio Video Interleave
Профиль формата                  : OpenDML
Размер файла                     : 3,95 Гбайт
Продолжительность                : 1 ч. 48 м.
Общий поток                      : 5206 Кбит/сек
Программа кодирования            : VirtualDubModRus 1.5.10.2 (build 2542/release)
Библиотека кодирования           : VirtualDubMod build 2542/release
Видео
Идентификатор                    : 0
Формат                           : MPEG-4 Visual
Профиль формата                  : Advanced [email protected]
Параметр BVOP формата            : 1
Параметр QPel формата            : Нет
Параметр GMC формата             : Без точки перехода
Параметр матрицы формата         : Выборочная
Идентификатор кодека             : XVID
Идентификатор кодека/Подсказка   : XviD
Продолжительность                : 1 ч. 48 м.
Битрейт                          : 2025 Кбит/сек
Ширина                           : 720 пикс.
Высота                           : 304 пикс.
Соотношение сторон               : 2,35:1
Частота кадров                   : 23,976 кадр/сек
Цветовое пространство            : YUV
Подвыборка цветности             : 4:2:0
Битовая глубина                  : 8 бит
Тип развёртки                    : Прогрессивная
Метод сжатия                     : С потерями
Бит/(Пиксели*Кадры)              : 0.386
Размер потока                    : 1,54 Гбайт (39%)
Библиотека кодирования           : XviD 1.2.1 (UTC 2008-12-04)
Аудио #1
Идентификатор                    : 1
Формат                           : AC-3
Формат/Информация                : Audio Coding 3
Расширение режима                : CM (complete main)
Идентификатор кодека             : 2000
Продолжительность                : 1 ч. 48 м.
Вид битрейта                     : Постоянный
Битрейт                          : 192 Кбит/сек
Канал(ы)                         : 2 канала(ов)
Расположение каналов             : Front: L R
Частота                          : 48,0 КГц
Битовая глубина                  : 16 бит
Метод сжатия                     : С потерями
Размер потока                    : 149 Мбайт (4%)
Выравнивание                     : Разделение по промежуткам
Продолжительность промежутка     : 42  мс. (1,00 видеокадр)
Время предзагрузки промежутка    : 500 ms
Аудио #2
Идентификатор                    : 2
Формат                           : AC-3
Формат/Информация                : Audio Coding 3
Расширение режима                : CM (complete main)
Идентификатор кодека             : 2000
Продолжительность                : 1 ч. 48 м.
Вид битрейта                     : Постоянный
Битрейт                          : 192 Кбит/сек
Канал(ы)                         : 2 канала(ов)
Расположение каналов             : Front: L R
Частота                          : 48,0 КГц
Битовая глубина                  : 16 бит
Метод сжатия                     : С потерями
Размер потока                    : 149 Мбайт (4%)
Выравнивание                     : Разделение по промежуткам
Продолжительность промежутка     : 42  мс. (1,00 видеокадр)
Время предзагрузки промежутка    : 500 ms
Аудио #3
Идентификатор                    : 3
Формат                           : AC-3
Формат/Информация                : Audio Coding 3
Расширение режима                : CM (complete main)
Идентификатор кодека             : 2000
Продолжительность                : 1 ч. 48 м.
Вид битрейта                     : Постоянный
Битрейт                          : 192 Кбит/сек
Канал(ы)                         : 2 канала(ов)
Расположение каналов             : Front: L R
Частота                          : 48,0 КГц
Битовая глубина                  : 16 бит
Метод сжатия                     : С потерями
Размер потока                    : 149 Мбайт (4%)
Выравнивание                     : Разделение по промежуткам
Продолжительность промежутка     : 42  мс. (1,00 видеокадр)
Время предзагрузки промежутка    : 500 ms
Аудио #4
Идентификатор                    : 4
Формат                           : AC-3
Формат/Информация                : Audio Coding 3
Расширение режима                : CM (complete main)
Идентификатор кодека             : 2000
Продолжительность                : 1 ч. 48 м.
Вид битрейта                     : Постоянный
Битрейт                          : 384 Кбит/сек
Канал(ы)                         : 6 канала(ов)
Расположение каналов             : Front: L C R, Side: L R, LFE
Частота                          : 48,0 КГц
Битовая глубина                  : 16 бит
Метод сжатия                     : С потерями
Размер потока                    : 298 Мбайт (7%)
Выравнивание                     : Разделение по промежуткам
Продолжительность промежутка     : 42  мс. (1,00 видеокадр)
Время предзагрузки промежутка    : 500 ms
Аудио #5
Идентификатор                    : 5
Формат                           : AC-3
Формат/Информация                : Audio Coding 3
Расширение режима                : CM (complete main)
Идентификатор кодека             : 2000
Продолжительность                : 1 ч. 48 м.
Вид битрейта                     : Постоянный
Битрейт                          : 448 Кбит/сек
Канал(ы)                         : 6 канала(ов)
Расположение каналов             : Front: L C R, Side: L R, LFE
Частота                          : 48,0 КГц
Битовая глубина                  : 16 бит
Метод сжатия                     : С потерями
Размер потока                    : 348 Мбайт (9%)
Выравнивание                     : Разделение по промежуткам
Продолжительность промежутка     : 42  мс. (1,00 видеокадр)
Время предзагрузки промежутка    : 500 ms
Аудио #6
Идентификатор                    : 6
Формат                           : AC-3
Формат/Информация                : Audio Coding 3
Расширение режима                : CM (complete main)
Идентификатор кодека             : 2000
Продолжительность                : 1 ч. 48 м.
Вид битрейта                     : Постоянный
Битрейт                          : 384 Кбит/сек
Канал(ы)                         : 6 канала(ов)
Расположение каналов             : Front: L C R, Side: L R, LFE
Частота                          : 48,0 КГц
Битовая глубина                  : 16 бит
Метод сжатия                     : С потерями
Размер потока                    : 299 Мбайт (7%)
Выравнивание                     : Разделение по промежуткам
Продолжительность промежутка     : 42  мс. (1,00 видеокадр)
Время предзагрузки промежутка    : 500 ms
Аудио #7
Идентификатор                    : 7
Формат                           : AC-3
Формат/Информация                : Audio Coding 3
Расширение режима                : CM (complete main)
Идентификатор кодека             : 2000
Продолжительность                : 1 ч. 48 м.
Вид битрейта                     : Постоянный
Битрейт                          : 448 Кбит/сек
Канал(ы)                         : 6 канала(ов)
Расположение каналов             : Front: L C R, Side: L R, LFE
Частота                          : 48,0 КГц
Битовая глубина                  : 16 бит
Метод сжатия                     : С потерями
Размер потока                    : 348 Мбайт (9%)
Выравнивание                     : Разделение по промежуткам
Продолжительность промежутка     : 42  мс. (1,00 видеокадр)
Время предзагрузки промежутка    : 500 ms
Аудио #8
Идентификатор                    : 8
Формат                           : AC-3
Формат/Информация                : Audio Coding 3
Расширение режима                : CM (complete main)
Идентификатор кодека             : 2000
Продолжительность                : 1 ч. 48 м.
Вид битрейта                     : Постоянный
Битрейт                          : 448 Кбит/сек
Канал(ы)                         : 6 канала(ов)
Расположение каналов             : Front: L C R, Side: L R, LFE
Частота                          : 48,0 КГц
Битовая глубина                  : 16 бит
Метод сжатия                     : С потерями
Размер потока                    : 348 Мбайт (9%)
Выравнивание                     : Разделение по промежуткам
Продолжительность промежутка     : 42  мс. (1,00 видеокадр)
Время предзагрузки промежутка    : 500 ms
Аудио #9
Идентификатор                    : 9
Формат                           : AC-3
Формат/Информация                : Audio Coding 3
Расширение режима                : CM (complete main)
Идентификатор кодека             : 2000
Продолжительность                : 1 ч. 48 м.
Вид битрейта                     : Постоянный
Битрейт                          : 448 Кбит/сек
Канал(ы)                         : 6 канала(ов)
Расположение каналов             : Front: L C R, Side: L R, LFE
Частота                          : 48,0 КГц
Битовая глубина                  : 16 бит
Метод сжатия                     : С потерями
Размер потока                    : 348 Мбайт (9%)
Выравнивание                     : Разделение по промежуткам
Продолжительность промежутка     : 42  мс. (1,00 видеокадр)
Время предзагрузки промежутка    : 500 ms


Последний раз редактировалось: Omen (2014-06-10 14:29), всего редактировалось 2 раз(а)
Вне форума [Профиль] [ЛС]

Dracula

Стаж: 3 года 1 месяц

Сообщений: 9704

Торрент-статистика

Пост 24-Ноя-2011 20:48 (спустя 8 часов)

Топик был перенесен из форума Фильмы 2011 (новинки) в форум Фильмы до 2000 года

sassad
 
Показать сообщения:    
Ответить на тему

Текущее время: Сегодня 01:19

Часовой пояс: GMT + 3



Вы не можете начинать темы
Вы не можете отвечать на сообщения
Вы не можете редактировать свои сообщения
Вы не можете удалять свои сообщения
Вы не можете голосовать в опросах
Вы не можете прикреплять файлы к сообщениям
Вы не можете скачивать файлы