Сегодня идет свободное скачивание без начисления Download

Резиновое Лицо / Rubberface (Глен Сальцман, Ребекка Йэтс) (Комедия 1983) DVDRip

Ответить на тему
 
Автор
Сообщение

Omen ®

Стаж: 4 года 1 месяц

Сообщений: 194394

Торрент-статистика

Пост 10-Янв-2014 21:14

[Цитировать]

Резиновое Лицо / Rubberface - Год выпуска: 1983
Жанр: Комедия
Описание фильма:
Фильм повествует о двух молодых людях: весельчаке Тони (Джим Керри), временно работающем посудомойкой в ночном клубе и студентке Дженни (Линн Дерагонт). Первый мечтает стать звездой stand-up show и дебютировать на сцене клуба, где он моет посуду. Вторая - начинающий драматург с комплексом боязни сцены. Раз встретившись, они помогают друг другу побороть собственные страхи.
Режиссер: Глен Сальцман, Ребекка Йэтс
Актеры: Джим Керри, Линн Дерагон, Ада Глассбург, Энн-Мари МакДоналд, Хелен Уди, Скот Дентон, Рени Девиллерс, Эмили Уилкинсон, Рик Рингер, Ларри Хоровиц, Гейб Коэн, Марла Лукофски, Джим Так, Джон Ламберт, Харви Эткин, Майкл Глассбург
Продолжительность: 00:48:20
Качество видео: DVDRip
Перевод: Двуголосый закадровый
Релиз группа: Fenix-Club

Видеокодек: Xvid
Битрейт видео: ~1518 kb/s
Размер кадра: 704x528
Аудио1: AC3, 2 ch, 192 Кбит/с - Русский
Аудио2: AC3, 2 ch, 192 Кбит/с - Английский

MediaInfo

Общее
Полное имя : E:\Фильмы\Резиновое_лицо_1983.avi
Формат : AVI
Формат/Информация : Audio Video Interleave
Размер файла : 663 Мбайт
Продолжительность : 48 м.
Общий поток : 1917 Кбит/сек
Программа кодирования : VirtualDubMod 1.5.10.2 (build 2542/release)
Библиотека кодирования : VirtualDubMod build 2542/release
Видео
Идентификатор : 0
Формат : MPEG-4 Visual
Профиль формата : Advanced [email protected]
Параметр BVOP формата : 1
Параметр QPel формата : Нет
Параметр GMC формата : Без точки перехода
Параметр матрицы формата : Default (H.263)
Идентификатор кодека : XVID
Идентификатор кодека/Подсказка : XviD
Продолжительность : 48 м.
Битрейт : 1518 Кбит/сек
Ширина : 704 пикселя
Высота : 528 пикселей
Соотношение сторон : 4:3
Частота кадров : 25,000 кадров/сек
Цветовое пространство : YUV
Субдискретизация насыщенности : 4:2:0
Битовая глубина : 8 бит
Тип развёртки : Прогрессивная
Метод сжатия : С потерями
Бит/(Пиксели*Кадры) : 0.163
Размер потока : 525 Мбайт (79%)
Библиотека кодирования : XviD 1.2.0.dev47 (UTC 2006-11-01)
Аудио #1
Идентификатор : 1
Формат : AC-3
Формат/Информация : Audio Coding 3
Расширение режима : CM (complete main)
Параметр Endianness формата : Big
Идентификатор кодека : 2000
Продолжительность : 48 м.
Вид битрейта : Постоянный
Битрейт : 192 Кбит/сек
Каналы : 2 канала
Расположение каналов : Front: L R
Частота : 48,0 КГц
Битовая глубина : 16 бит
Метод сжатия : С потерями
Размер потока : 66,4 Мбайт (10%)
Выравнивание : Разделение по промежуткам
Продолжительность промежутка : 40 мс. (1,00 видеокадр)
Время предзагрузки промежутка : 500 мс.
Аудио #2
Идентификатор : 2
Формат : AC-3
Формат/Информация : Audio Coding 3
Расширение режима : CM (complete main)
Параметр Endianness формата : Big
Идентификатор кодека : 2000
Продолжительность : 48 м.
Вид битрейта : Постоянный
Битрейт : 192 Кбит/сек
Каналы : 2 канала
Расположение каналов : Front: L R
Частота : 48,0 КГц
Битовая глубина : 16 бит
Метод сжатия : С потерями
Размер потока : 66,4 Мбайт (10%)
Выравнивание : Разделение по промежуткам
Продолжительность промежутка : 40 мс. (1,00 видеокадр)
Время предзагрузки промежутка : 500 мс.
СКРИНШОТЫ
[        
Вне форума [Профиль] [ЛС]
Похожие темы
Форум Тема Автор Торрент Отв. Посл. сообщение
./templates/default/images/folder_dl.gif Приключения, детектив, боевик, триллер Кристи Агата - Рассказы о мистере Паркере Пайне. Часть 1. Часть 2 [Юрий Вязовский, Александр Уткин, Валентина Кудинова, Юлия Хамитова, Денис Березин, Павел Аркадьев, Ирина Кнырикова, Дмитрий Басов, 2012 г., 192 kbps, MP3] Omen
1 | 0

0 | 695

8

2012-12-11 05:33
Omen Последнее
Показать сообщения:    
Ответить на тему

Текущее время: Сегодня 09:47

Часовой пояс: GMT + 3



Вы не можете начинать темы
Вы не можете отвечать на сообщения
Вы не можете редактировать свои сообщения
Вы не можете удалять свои сообщения
Вы не можете голосовать в опросах
Вы не можете прикреплять файлы к сообщениям
Вы не можете скачивать файлы