Сегодня идет свободное скачивание без начисления Download

Зед и два нуля / Zoo / A Zed & Two Noughts (Питер Гринуэй) (Драма, комедия 1986) BDRip

Ответить на тему
 
Автор
Сообщение

Omen ®

Стаж: 4 года 1 месяц

Сообщений: 194394

Торрент-статистика

Пост 10-Янв-2014 21:16

[Цитировать]

Зед и два нуля / Zoo / A Zed & Two Noughts- Год выпуска: 1986
Производство: Великобритания, Нидерланды | Allarts Enterprises, BFI, VPRO, Artificial Eye, Film Four International
Жанр: Драма, комедия
Перевод: Многоголосый закадровый
Субтитры: Отсутствуют
Дата мировой премьеры: 9 апреля 1986, Франция
Дата выхода DVD релиза: 28 декабря 1999, Fox Lorber
Дата выхода Blu-Ray релиза: 23 августа 2010, BFI
Режиссер: Питер Гринуэй
Сценарий: Питер Гринуэй
Продюсер: Кеес Касандер, Питер Сейнсбури
Актеры: Андреа Ферреоль, Брайан Дикон, Эрик Дикон, Фрэнсис Барбер, Джосс Экленд, Джим Дэвидсон, Агнес Бруле, Гузье ван Тилборг, Херард Толен, Кен Кэмпбелл, Вольф Калер, Джеффри Палмер
Описание фильма:
Три женщины попадают в автокатастрофу. Две погибают, а третьей ампутируют ногу. Мужья погибших, братья-близнецы Оливер и Освальд, работающие зоологами, снимают на пленку процессы распада живой материи, пытаясь вслед за Дарвином докопаться до первооснов человеческой эволюции.

Продолжительность: 01:56:34
Качество видео: BDRip
Видеокодек: Xvid
Битрейт видео: 1553 кбит/c
Размер кадра: 720x432
Аудиокодек: AC3 2.0
Битрейт аудио: 224 кбит/c

Знаете ли вы, что...

  • В начале фильма вниманию зрителей представляется титульный газетный лист, содержащий заметку о смерти жён братьев Дьюс. Кроме этого, на той же странице присутствуют два сообщения, поясняющие сюжетные элементы из двух последующих фильмов Питера Гринуэя: "Живот архитектора" (1987) — заметка "Architect Dies" ("Архитектор умирает"), и "Отсчёт утопленников" (1988) — заметка "A Hot Bath Heart Attack" ("Сердечный приступ в горячей ванной").

MediaInfo:

General
Complete name : D:\A_Zed_&_Two_Noughts_1986.BDRip.XviD.avi
Format : AVI
Format/Info : Audio Video Interleave
File size : 1.45 GiB
Duration : 1h 56mn
Overall bit rate : 1 786 Kbps
Writing application : VirtualDubMod 1.5.10.2 (build 2540/release)
Writing library : VirtualDubMod build 2540/release
Video
ID : 0
Format : MPEG-4 Visual
Format profile : Advanced [email protected]
Format settings, BVOP : 1
Format settings, QPel : No
Format settings, GMC : No warppoints
Format settings, Matrix : Default (MPEG)
Codec ID : XVID
Codec ID/Hint : XviD
Duration : 1h 56mn
Bit rate : 1 553 Kbps
Width : 720 pixels
Height : 432 pixels
Display aspect ratio : 1.667
Frame rate : 24.000 fps
Color space : YUV
Chroma subsampling : 4:2:0
Bit depth : 8 bits
Scan type : Progressive
Compression mode : Lossy
Bits/(Pixel*Frame) : 0.208
Stream size : 1.26 GiB (87%)
Writing library : XviD 1.2.0.dev47 (UTC 2006-11-01)
Audio
ID : 1
Format : AC-3
Format/Info : Audio Coding 3
Mode extension : CM (complete main)
Format settings, Endianness : Big
Codec ID : 2000
Duration : 1h 56mn
Bit rate mode : Constant
Bit rate : 224 Kbps
Channel(s) : 2 channels
Channel positions : Front: L R
Sampling rate : 48.0 KHz
Bit depth : 16 bits
Compression mode : Lossy
Stream size : 187 MiB (13%)
Alignment : Split accross interleaves
Interleave, duration : 42 ms (1.00 video frame)
Interleave, preload duration : 500 ms
Скриншоты:
                   
Вне форума [Профиль] [ЛС]
Показать сообщения:    
Ответить на тему

Текущее время: Сегодня 15:09

Часовой пояс: GMT + 3



Вы не можете начинать темы
Вы не можете отвечать на сообщения
Вы не можете редактировать свои сообщения
Вы не можете удалять свои сообщения
Вы не можете голосовать в опросах
Вы не можете прикреплять файлы к сообщениям
Вы не можете скачивать файлы