Сегодня идет свободное скачивание без начисления Download

Слепая ярость - Blind Fury (1989) [H264] HDTVRip

Ответить на тему
 
Автор
Сообщение

Omen ®

Стаж: 4 года 1 месяц

Сообщений: 194382

Торрент-статистика

Пост 24-Ноя-2011 21:49

[Цитировать]

Слепая ярость
Blind Fury
- Русское название: Слепая ярость
Оригинальное название: Blind Fury
Год выпуска: 1989
Жанр: Боевик, Триллер, Комедия
Описание фильма:
На первый взгляд он беспомощный слепой, один из тысяч несчастных бродяг. Но не стоит слишком полагаться на собственное зрение... Ветеран Вьетнама Ник Паркер ослеп на войне, но жестокий Восток научил свою жертву великому искусству защищаться.Вернувшись к мирной жизни, бывший солдат вынужден снова вступить в бой. Нику не нужно видеть своих врагов. Слепая ярость приведет его прямо к ним...
Режиссер: Филлип Нойс / Phillip Noyce
Актеры: Рутгер Хауэр, Терри О’Куинн, Брэндон Колл, Ноубл Уиллингэм, Лиза Блаунт, Ник Кассаветис, Рик Овертон, Рэндал «Текс» Кобб, Чарльз Купер, Мег Фостер
Продолжительность: 01:22:30
Перевод: Многоголосый закадровый, Многоголосый закадровый-Видеосервис, Двухголосый закадровый-Первый канал, Дубляж- Варус-Видео, Одноголосый закадровый- А.Гаврилов, Одноголосый закадровый- В.Завгородний
Субтитры: Русские, Английские

Видеокодек: MPEG-4 AVC/H.264
Битрейт видео: ~3000 Kbps
Размер кадра: 1056x592
Качество видео: HDTVRip
Аудиокодек: AC3
Аудио#1: Русский: 48 kHz, AC3, 2/0 (L,R) ch, ~384.00 kbps avg |Многоголосый закадровый|
Аудио#2: Русский: 48 kHz, AC3, 2/0 (L,R) ch, ~192.00 kbps avg |Многоголосый закадровый, Видеосервис|
Аудио#3: Русский: 48 kHz, AC3, 2/0 (L,R) ch, ~192.00 kbps avg |Двухголосый закадровый, Первый канал|
Аудио#4: Русский: 48 kHz, AC3, 2/0 (L,R) ch, ~192.00 kbps avg |Дубляж, Варус-Видео|
Аудио#5: Русский: 48 kHz, AC3, 2/0 (L,R) ch, ~384.00 kbps avg |Одноголосый закадровый, А.Гаврилов|
Аудио#6: Русский: 48 kHz, AC3, 2/0 (L,R) ch, ~384.00 kbps avg |Одноголосый закадровый, В.Завгородний|
Аудио#7: Английский: 48 kHz, AC3, 2/0 (L,R) ch, ~384.00 kbps avg Оригинальный-

MediaInfo

Код:
Общее
Уникальный идентификатор         : 195875165303826939892703001460917343431 (0x935C2F4363E91F0E89613A06C9DF14C7)
Полное имя                       : F:\Blind Fury.1989.HDTVRip-AVC.mkv
Формат                           : Matroska
Версия формата                   : Version 2
Размер файла                     : 2,66 Гбайт
Продолжительность                : 1 ч. 22 м.
Общий поток                      : 4590 Кбит/сек
Название фильма                  : Blind Fury.1989.HDTVRip.mkv [by pan29]
Дата кодирования                 : UTC 2011-11-24 08:27:22
Программа кодирования            : mkvmerge v4.2.0 ('No Talking') сборка от Jul 28 2010 18:38:23
Библиотека кодирования           : libebml v1.0.0 + libmatroska v1.0.0
Видео
Идентификатор                    : 1
Формат                           : AVC
Формат/Информация                : Advanced Video Codec
Профиль формата                  : [url=mailto:[email protected]][email protected][/url]
Параметр CABAC формата           : Да
Параметр ReFrames формата        : 10 кадров
Режим смешивания                 : Header stripping
Идентификатор кодека             : V_MPEG4/ISO/AVC
Продолжительность                : 1 ч. 22 м.
Битрейт                          : 3000 Кбит/сек
Ширина                           : 1056 пикселей
Высота                           : 592 пикселя
Соотношение сторон               : 16:9
Частота кадров                   : 25,000 кадров/сек
Цветовое пространство            : YUV
Субдискретизация насыщенности    : 4:2:0
Битовая глубина                  : 8 бит
Тип развёртки                    : Прогрессивная
Бит/(Пиксели*Кадры)              : 0.192
Размер потока                    : 1,68 Гбайт (63%)
Заголовок                        : Blind Fury.1989
Библиотека кодирования           : x264 core 115 r1937 aa21558
Настройки программы              : cabac=1 / ref=10 / deblock=1:-1:-1 / analyse=0x3:0x113 / me=umh / subme=9 / psy=1 / psy_rd=1.00:0.05 / mixed_ref=1 / me_range=24 / chroma_me=1 / trellis=2 / 8x8dct=1 / cqm=0 / deadzone=21,11 / fast_pskip=0 / chroma_qp_offset=-3 / threads=3 / sliced_threads=0 / nr=0 / decimate=0 / interlaced=0 / bluray_compat=0 / constrained_intra=0 / bframes=9 / b_pyramid=2 / b_adapt=2 / b_bias=0 / direct=3 / weightb=1 / open_gop=0 / weightp=2 / keyint=250 / keyint_min=25 / scenecut=40 / intra_refresh=0 / rc_lookahead=40 / rc=2pass / mbtree=0 / bitrate=3000 / ratetol=1.0 / qcomp=0.60 / qpmin=0 / qpmax=69 / qpstep=4 / cplxblur=20.0 / qblur=0.5 / vbv_maxrate=50000 / vbv_bufsize=50000 / nal_hrd=none / ip_ratio=1.40 / pb_ratio=1.30 / aq=1:1.00
Язык                             : English
Аудио #1
Идентификатор                    : 2
Формат                           : AC-3
Формат/Информация                : Audio Coding 3
Расширение режима                : CM (complete main)
Режим смешивания                 : Header stripping
Идентификатор кодека             : A_AC3
Продолжительность                : 1 ч. 22 м.
Вид битрейта                     : Постоянный
Битрейт                          : 192 Кбит/сек
Каналы                           : 2 канала
Расположение каналов             : Front: L R
Частота                          : 48,0 КГц
Битовая глубина                  : 16 бит
Метод сжатия                     : С потерями
Размер потока                    : 114 Мбайт (4%)
Заголовок                        : Многоголосый
Язык                             : Russian
Аудио #2
Идентификатор                    : 3
Формат                           : AC-3
Формат/Информация                : Audio Coding 3
Расширение режима                : CM (complete main)
Режим смешивания                 : Header stripping
Идентификатор кодека             : A_AC3
Продолжительность                : 1 ч. 22 м.
Вид битрейта                     : Постоянный
Битрейт                          : 192 Кбит/сек
Каналы                           : 2 канала
Расположение каналов             : Front: L R
Частота                          : 48,0 КГц
Битовая глубина                  : 16 бит
Метод сжатия                     : С потерями
Размер потока                    : 114 Мбайт (4%)
Заголовок                        : Многоголосый, Видеосервис
Язык                             : Russian
Аудио #3
Идентификатор                    : 4
Формат                           : AC-3
Формат/Информация                : Audio Coding 3
Расширение режима                : CM (complete main)
Режим смешивания                 : Header stripping
Идентификатор кодека             : A_AC3
Продолжительность                : 1 ч. 22 м.
Вид битрейта                     : Постоянный
Битрейт                          : 192 Кбит/сек
Каналы                           : 2 канала
Расположение каналов             : Front: L R
Частота                          : 48,0 КГц
Битовая глубина                  : 16 бит
Метод сжатия                     : С потерями
Размер потока                    : 114 Мбайт (4%)
Заголовок                        : Дубляжj, Варус Видео
Язык                             : Russian
Аудио #4
Идентификатор                    : 5
Формат                           : AC-3
Формат/Информация                : Audio Coding 3
Расширение режима                : CM (complete main)
Режим смешивания                 : Header stripping
Идентификатор кодека             : A_AC3
Продолжительность                : 1 ч. 22 м.
Вид битрейта                     : Постоянный
Битрейт                          : 192 Кбит/сек
Каналы                           : 2 канала
Расположение каналов             : Front: L R
Частота                          : 48,0 КГц
Битовая глубина                  : 16 бит
Метод сжатия                     : С потерями
Размер потока                    : 114 Мбайт (4%)
Заголовок                        : Двухголосый , Первый канал
Язык                             : Russian
Аудио #5
Идентификатор                    : 6
Формат                           : AC-3
Формат/Информация                : Audio Coding 3
Расширение режима                : CM (complete main)
Режим смешивания                 : Header stripping
Идентификатор кодека             : A_AC3
Продолжительность                : 1 ч. 22 м.
Вид битрейта                     : Постоянный
Битрейт                          : 192 Кбит/сек
Каналы                           : 2 канала
Расположение каналов             : Front: L R
Частота                          : 48,0 КГц
Битовая глубина                  : 16 бит
Метод сжатия                     : С потерями
Размер потока                    : 114 Мбайт (4%)
Заголовок                        : Авторский, A.Гаврилов
Язык                             : Russian
Аудио #6
Идентификатор                    : 7
Формат                           : AC-3
Формат/Информация                : Audio Coding 3
Расширение режима                : CM (complete main)
Режим смешивания                 : Header stripping
Идентификатор кодека             : A_AC3
Продолжительность                : 1 ч. 22 м.
Вид битрейта                     : Постоянный
Битрейт                          : 448 Кбит/сек
Каналы                           : 2 канала
Расположение каналов             : Front: L R
Частота                          : 48,0 КГц
Битовая глубина                  : 16 бит
Метод сжатия                     : С потерями
Задержка видео                   : 16 мс.
Размер потока                    : 266 Мбайт (10%)
Заголовок                        : Одноголосый, В.Завгородний
Язык                             : Russian
Аудио #7
Идентификатор                    : 8
Формат                           : AC-3
Формат/Информация                : Audio Coding 3
Расширение режима                : CM (complete main)
Режим смешивания                 : Header stripping
Идентификатор кодека             : A_AC3
Продолжительность                : 1 ч. 22 м.
Вид битрейта                     : Постоянный
Битрейт                          : 192 Кбит/сек
Каналы                           : 2 канала
Расположение каналов             : Front: L R
Частота                          : 48,0 КГц
Битовая глубина                  : 16 бит
Метод сжатия                     : С потерями
Размер потока                    : 114 Мбайт (4%)
Заголовок                        : Original
Язык                             : English
Текст #1
Идентификатор                    : 9
Формат                           : UTF-8
Идентификатор кодека             : S_TEXT/UTF8
Идентификатор кодека/Информация  : UTF-8 Plain Text
Заголовок                        : Русские
Язык                             : Russian
Текст #2
Идентификатор                    : 10
Формат                           : UTF-8
Идентификатор кодека             : S_TEXT/UTF8
Идентификатор кодека/Информация  : UTF-8 Plain Text
Заголовок                        : Английские
Язык                             : English
-Скриншоты:
       
       
Вне форума [Профиль] [ЛС]
Показать сообщения:    
Ответить на тему

Текущее время: Сегодня 22:20

Часовой пояс: GMT + 3



Вы не можете начинать темы
Вы не можете отвечать на сообщения
Вы не можете редактировать свои сообщения
Вы не можете удалять свои сообщения
Вы не можете голосовать в опросах
Вы не можете прикреплять файлы к сообщениям
Вы не можете скачивать файлы