Today is a free download without charge Download

(Swing, Mainstream Jazz) Lester Young - Portrait (10CD Box Set) - 2001, FLAC (tracks+.cue), lossless

Reply to topic
 
Author
Message

Koralina ®

Longevity: 8 years

Posts: 994

Location: Lithuania

Торрент-статистика

Post 25-Nov-2011 11:26

[Quote]

Lester Young - Portrait (10CD Box Set)
Жанр: Swing, Mainstream Jazz
Год издания диска: 2001
Издатель (лейбл): Past Perfect
Аудиокодек: FLAC (*.flac)
Тип рипа: tracks+.cue
Битрейт аудио: lossless
Продолжительность: 09:51:11
Источник (релизер): cdboxset
Наличие сканов в содержимом раздачи: да

CD1{Countless Blues} - 00:56:05(1936-1938)

Треклист:

01. Shoe Shine Boy [0:02:59.62]
02. Evenin' [0:02:56.53]
03. Boogie Woogie (I May Be Wrong) [0:03:15.60]
04. Lady Be Good [0:03:08.36]
05. This Year's Kisses [0:03:07.45]
06. I Must Have That Man [0:02:56.24]
07. I'll Get By [0:03:09.00]
08. Mean To Me [0:03:07.69]
09. I'll Never Be The Same [0:03:03.84]
10. Easy Living [0:03:04.38]
11. Foolin' Myself [0:03:00.13]
12. Without Your Love [0:02:52.08]
13. Me, Myself And I [0:02:37.84]
14. A Sailboat In The Moonlight [0:02:53.21]
15. Trav'lin' All Alone [0:02:15.17]
16. She's Funny That Way [0:02:39.04]
17. Getting Some Fun Out Of Life [0:03:03.46]
18. Way Down Yonder In New Orleans [0:02:57.93]
19. Countless Blues [0:02:58.38]

Лог создания рипа

Exact Audio Copy V0.99 prebeta 5 from 4. May 2009
EAC extraction logfile from 24. October 2009, 19:05
Lester Young / Portrait - Disc 01 (Countless Blues)
Used drive : PIONEER DVD-RW DVR-116D Adapter: 5 ID: 2
Read mode : Secure
Utilize accurate stream : Yes
Defeat audio cache : Yes
Make use of C2 pointers : No
Read offset correction : 96
Overread into Lead-In and Lead-Out : No
Fill up missing offset samples with silence : Yes
Delete leading and trailing silent blocks : No
Null samples used in CRC calculations : Yes
Used interface : Installed external ASPI interface
Gap handling : Appended to previous track
Used output format : Internal WAV Routines
Sample format : 44.100 Hz; 16 Bit; Stereo
TOC of the extracted CD
Track | Start | Length | Start sector | End sector
---------------------------------------------------------
1 | 0:00.00 | 2:59.47 | 0 | 13471
2 | 2:59.47 | 2:56.40 | 13472 | 26711
3 | 5:56.12 | 3:15.45 | 26712 | 41381
4 | 9:11.57 | 3:08.27 | 41382 | 55508
5 | 12:20.09 | 3:07.34 | 55509 | 69567
6 | 15:27.43 | 2:56.18 | 69568 | 82785
7 | 18:23.61 | 3:09.00 | 82786 | 96960
8 | 21:32.61 | 3:07.52 | 96961 | 111037
9 | 24:40.38 | 3:03.63 | 111038 | 124825
10 | 27:44.26 | 3:04.29 | 124826 | 138654
11 | 30:48.55 | 3:00.10 | 138655 | 152164
12 | 33:48.65 | 2:52.06 | 152165 | 165070
13 | 36:40.71 | 2:37.63 | 165071 | 176908
14 | 39:18.59 | 2:53.16 | 176909 | 189899
15 | 42:12.00 | 2:15.13 | 189900 | 200037
16 | 44:27.13 | 2:39.03 | 200038 | 211965
17 | 47:06.16 | 3:03.35 | 211966 | 225725
18 | 50:09.51 | 2:57.70 | 225726 | 239070
19 | 53:07.46 | 2:58.29 | 239071 | 252449
Track 1
Filename F:\rips\Lester box\D1\01 - Shoe Shine Boy.wav
Pre-gap length 0:00:02.00
Peak level 99.1 %
Track quality 99.9 %
Test CRC 5DE2C23F
Copy CRC 5DE2C23F
Cannot be verified as accurate (confidence 1) [94B435E9], AccurateRip returned [6384835C]
Copy OK
Track 2
Filename F:\rips\Lester box\D1\02 - Evenin'.wav
Pre-gap length 0:00:02.00
Peak level 98.5 %
Track quality 100.0 %
Test CRC 3F7EB3D1
Copy CRC 3F7EB3D1
Cannot be verified as accurate (confidence 1) [31A339A6], AccurateRip returned [A2FCA244]
Copy OK
Track 3
Filename F:\rips\Lester box\D1\03 - Boogie Woogie (I May Be Wrong).wav
Pre-gap length 0:00:02.00
Peak level 99.1 %
Track quality 99.9 %
Test CRC F5E2E6D0
Copy CRC F5E2E6D0
Cannot be verified as accurate (confidence 1) [C4404B38], AccurateRip returned [674B0474]
Copy OK
Track 4
Filename F:\rips\Lester box\D1\04 - Lady Be Good.wav
Pre-gap length 0:00:02.00
Peak level 100.0 %
Track quality 100.0 %
Test CRC 90898FA0
Copy CRC 90898FA0
Cannot be verified as accurate (confidence 1) [22CFF3FF], AccurateRip returned [025A938A]
Copy OK
Track 5
Filename F:\rips\Lester box\D1\05 - This Year's Kisses.wav
Pre-gap length 0:00:02.00
Peak level 100.0 %
Track quality 100.0 %
Test CRC 0BEF4459
Copy CRC 0BEF4459
Cannot be verified as accurate (confidence 1) [C4CFE0F1], AccurateRip returned [A56CBD0A]
Copy OK
Track 6
Filename F:\rips\Lester box\D1\06 - I Must Have That Man.wav
Pre-gap length 0:00:02.00
Peak level 99.8 %
Track quality 100.0 %
Test CRC F43FC894
Copy CRC F43FC894
Cannot be verified as accurate (confidence 1) [D1D6C56A], AccurateRip returned [75C1ED6E]
Copy OK
Track 7
Filename F:\rips\Lester box\D1\07 - I'll Get By.wav
Pre-gap length 0:00:02.00
Peak level 98.5 %
Track quality 100.0 %
Test CRC 4DA6E157
Copy CRC 4DA6E157
Cannot be verified as accurate (confidence 1) [D1E32A7A], AccurateRip returned [88D89F34]
Copy OK
Track 8
Filename F:\rips\Lester box\D1\08 - Mean To Me.wav
Pre-gap length 0:00:02.00
Peak level 99.2 %
Track quality 100.0 %
Test CRC 48F93843
Copy CRC 48F93843
Cannot be verified as accurate (confidence 1) [20CD405E], AccurateRip returned [8C551ACB]
Copy OK
Track 9
Filename F:\rips\Lester box\D1\09 - I'll Never Be The Same.wav
Pre-gap length 0:00:02.00
Peak level 98.4 %
Track quality 100.0 %
Test CRC B73A469C
Copy CRC B73A469C
Cannot be verified as accurate (confidence 1) [98388514], AccurateRip returned [2BF06B45]
Copy OK
Track 10
Filename F:\rips\Lester box\D1\10 - Easy Living.wav
Pre-gap length 0:00:02.00
Peak level 99.8 %
Track quality 100.0 %
Test CRC 2DBEE9E2
Copy CRC 2DBEE9E2
Cannot be verified as accurate (confidence 1) [72B9CA48], AccurateRip returned [D06C265A]
Copy OK
Track 11
Filename F:\rips\Lester box\D1\11 - Foolin' Myself.wav
Pre-gap length 0:00:02.00
Peak level 98.5 %
Track quality 100.0 %
Test CRC A0DE8688
Copy CRC A0DE8688
Cannot be verified as accurate (confidence 1) [EEE7F928], AccurateRip returned [76A36312]
Copy OK
Track 12
Filename F:\rips\Lester box\D1\12 - Without Your Love.wav
Pre-gap length 0:00:02.00
Peak level 98.5 %
Track quality 100.0 %
Test CRC 3C8F8B01
Copy CRC 3C8F8B01
Cannot be verified as accurate (confidence 1) [FD7608C9], AccurateRip returned [FF6A6AC2]
Copy OK
Track 13
Filename F:\rips\Lester box\D1\13 - Me, Myself And I.wav
Pre-gap length 0:00:02.00
Peak level 98.5 %
Track quality 100.0 %
Test CRC 4F2F82CE
Copy CRC 4F2F82CE
Cannot be verified as accurate (confidence 1) [ED65922B], AccurateRip returned [1A834EF2]
Copy OK
Track 14
Filename F:\rips\Lester box\D1\14 - A Sailboat In The Moonlight.wav
Pre-gap length 0:00:02.00
Peak level 98.7 %
Track quality 100.0 %
Test CRC 42426A08
Copy CRC 42426A08
Cannot be verified as accurate (confidence 1) [549BC244], AccurateRip returned [B12357C1]
Copy OK
Track 15
Filename F:\rips\Lester box\D1\15 - Trav'lin' All Alone.wav
Pre-gap length 0:00:02.00
Peak level 98.3 %
Track quality 100.0 %
Test CRC BFDFB0F0
Copy CRC BFDFB0F0
Cannot be verified as accurate (confidence 1) [AED1F41D], AccurateRip returned [DB21D1ED]
Copy OK
Track 16
Filename F:\rips\Lester box\D1\16 - She's Funny That Way.wav
Pre-gap length 0:00:02.00
Peak level 100.0 %
Track quality 99.9 %
Test CRC 35F05B02
Copy CRC 35F05B02
Cannot be verified as accurate (confidence 1) [FFD58E74], AccurateRip returned [D768E0D3]
Copy OK
Track 17
Filename F:\rips\Lester box\D1\17 - Getting Some Fun Out Of Life.wav
Pre-gap length 0:00:02.00
Peak level 98.7 %
Track quality 100.0 %
Test CRC 23DC379A
Copy CRC 23DC379A
Cannot be verified as accurate (confidence 1) [977E03CC], AccurateRip returned [C31457C7]
Copy OK
Track 18
Filename F:\rips\Lester box\D1\18 - Way Down Yonder In New Orleans.wav
Pre-gap length 0:00:02.00
Peak level 98.8 %
Track quality 100.0 %
Test CRC E0C8B00E
Copy CRC E0C8B00E
Cannot be verified as accurate (confidence 1) [144D5017], AccurateRip returned [A656BD8C]
Copy OK
Track 19
Filename F:\rips\Lester box\D1\19 - Countless Blues.wav
Pre-gap length 0:00:02.00
Peak level 99.1 %
Track quality 100.0 %
Test CRC F941F453
Copy CRC F941F453
Cannot be verified as accurate (confidence 1) [8E27A61C], AccurateRip returned [6F4D2928]
Copy OK
No tracks could be verified as accurate
You may have a different pressing from the one(s) in the database
No errors occurred
End of status report

Содержание индексной карты (.CUE)

REM GENRE Jazz
REM DATE 2001
REM DISCID FA0D2613
REM COMMENT "ExactAudioCopy v0.99pb5"
PERFORMER "Lester Young"
TITLE "Portrait - Disc 01 (Countless Blues)"
FILE "01 - Shoe Shine Boy.flac" WAVE
TRACK 01 AUDIO
TITLE "Shoe Shine Boy"
PERFORMER "Lester Young"
INDEX 01 00:00:00
TRACK 02 AUDIO
TITLE "Evenin'"
PERFORMER "Lester Young"
INDEX 00 02:57:47
FILE "02 - Evenin'.flac" WAVE
INDEX 01 00:00:00
TRACK 03 AUDIO
TITLE "Boogie Woogie (I May Be Wrong)"
PERFORMER "Lester Young"
INDEX 00 02:54:40
FILE "03 - Boogie Woogie (I May Be Wrong).flac" WAVE
INDEX 01 00:00:00
TRACK 04 AUDIO
TITLE "Lady Be Good"
PERFORMER "Lester Young"
INDEX 00 03:13:45
FILE "04 - Lady Be Good.flac" WAVE
INDEX 01 00:00:00
TRACK 05 AUDIO
TITLE "This Year's Kisses"
PERFORMER "Lester Young"
INDEX 00 03:06:27
FILE "05 - This Year's Kisses.flac" WAVE
INDEX 01 00:00:00
TRACK 06 AUDIO
TITLE "I Must Have That Man"
PERFORMER "Lester Young"
INDEX 00 03:05:34
FILE "06 - I Must Have That Man.flac" WAVE
INDEX 01 00:00:00
TRACK 07 AUDIO
TITLE "I'll Get By"
PERFORMER "Lester Young"
INDEX 00 02:54:18
FILE "07 - I'll Get By.flac" WAVE
INDEX 01 00:00:00
TRACK 08 AUDIO
TITLE "Mean To Me"
PERFORMER "Lester Young"
INDEX 00 03:07:00
FILE "08 - Mean To Me.flac" WAVE
INDEX 01 00:00:00
TRACK 09 AUDIO
TITLE "I'll Never Be The Same"
PERFORMER "Lester Young"
INDEX 00 03:05:52
FILE "09 - I'll Never Be The Same.flac" WAVE
INDEX 01 00:00:00
TRACK 10 AUDIO
TITLE "Easy Living"
PERFORMER "Lester Young"
INDEX 00 03:01:63
FILE "10 - Easy Living.flac" WAVE
INDEX 01 00:00:00
TRACK 11 AUDIO
TITLE "Foolin' Myself"
PERFORMER "Lester Young"
INDEX 00 03:02:29
FILE "11 - Foolin' Myself.flac" WAVE
INDEX 01 00:00:00
TRACK 12 AUDIO
TITLE "Without Your Love"
PERFORMER "Lester Young"
INDEX 00 02:58:10
FILE "12 - Without Your Love.flac" WAVE
INDEX 01 00:00:00
TRACK 13 AUDIO
TITLE "Me, Myself And I"
PERFORMER "Lester Young"
INDEX 00 02:50:06
FILE "13 - Me, Myself And I.flac" WAVE
INDEX 01 00:00:00
TRACK 14 AUDIO
TITLE "A Sailboat In The Moonlight"
PERFORMER "Lester Young"
INDEX 00 02:35:63
FILE "14 - A Sailboat In The Moonlight.flac" WAVE
INDEX 01 00:00:00
TRACK 15 AUDIO
TITLE "Trav'lin' All Alone"
PERFORMER "Lester Young"
INDEX 00 02:51:16
FILE "15 - Trav'lin' All Alone.flac" WAVE
INDEX 01 00:00:00
TRACK 16 AUDIO
TITLE "She's Funny That Way"
PERFORMER "Lester Young"
INDEX 00 02:13:13
FILE "16 - She's Funny That Way.flac" WAVE
INDEX 01 00:00:00
TRACK 17 AUDIO
TITLE "Getting Some Fun Out Of Life"
PERFORMER "Lester Young"
INDEX 00 02:37:03
FILE "17 - Getting Some Fun Out Of Life.flac" WAVE
INDEX 01 00:00:00
TRACK 18 AUDIO
TITLE "Way Down Yonder In New Orleans"
PERFORMER "Lester Young"
INDEX 00 03:01:35
FILE "18 - Way Down Yonder In New Orleans.flac" WAVE
INDEX 01 00:00:00
TRACK 19 AUDIO
TITLE "Countless Blues"
PERFORMER "Lester Young"
INDEX 00 02:55:70
FILE "19 - Countless Blues.flac" WAVE
INDEX 01 00:00:00

CD2{Lester Leaps In} - 00:53:52(1938-1939)

Треклист:

01. Them There Eyes [0:02:58.93]
02. I Want a Little Girl [0:02:53.04]
03. Pagin' the Devil [0:02:55.98]
04. I Can't Believe That You're In Love With Me [0:02:45.52]
05. Back In Your Own Backyard [0:02:40.86]
06. You Can't Be Mine [0:02:21.00]
07. Say It With a Kiss [0:02:34.45]
08. I Ain't Got Nobody [0:02:56.88]
09. Goin' To Chicago [0:03:07.69]
10. (Let Me) Live And Love Tonight [0:03:00.33]
11. Love Me Or Leave Me [0:02:32.05]
12. China Boy [0:02:50.20]
13. Exactly Like You [0:02:41.40]
14. On the Sunny Side Of the Street [0:02:55.56]
15. Upright Organ Blues [0:02:58.41]
16. Who [0:02:35.73]
17. Jazz Me Blues [0:02:45.74]
18. Dickie's Dream [0:03:07.53]
19. Lester Leaps In [0:03:11.08]

Лог создания рипа

Exact Audio Copy V0.99 prebeta 5 from 4. May 2009
EAC extraction logfile from 24. October 2009, 19:44
Lester Young / Portrait - Disc 02 (Lester Leaps In)
Used drive : PIONEER DVD-RW DVR-116D Adapter: 5 ID: 2
Read mode : Secure
Utilize accurate stream : Yes
Defeat audio cache : Yes
Make use of C2 pointers : No
Read offset correction : 96
Overread into Lead-In and Lead-Out : No
Fill up missing offset samples with silence : Yes
Delete leading and trailing silent blocks : No
Null samples used in CRC calculations : Yes
Used interface : Installed external ASPI interface
Gap handling : Appended to previous track
Used output format : Internal WAV Routines
Sample format : 44.100 Hz; 16 Bit; Stereo
TOC of the extracted CD
Track | Start | Length | Start sector | End sector
---------------------------------------------------------
1 | 0:00.00 | 2:58.70 | 0 | 13419
2 | 2:58.70 | 2:53.03 | 13420 | 26397
3 | 5:51.73 | 2:55.74 | 26398 | 39596
4 | 8:47.72 | 2:45.39 | 39597 | 52010
5 | 11:33.36 | 2:40.65 | 52011 | 64075
6 | 14:14.26 | 2:21.00 | 64076 | 74650
7 | 16:35.26 | 2:34.34 | 74651 | 86234
8 | 19:09.60 | 2:56.66 | 86235 | 99500
9 | 22:06.51 | 3:07.52 | 99501 | 113577
10 | 25:14.28 | 3:00.25 | 113578 | 127102
11 | 28:14.53 | 2:32.04 | 127103 | 138506
12 | 30:46.57 | 2:50.15 | 138507 | 151271
13 | 33:36.72 | 2:41.30 | 151272 | 163376
14 | 36:18.27 | 2:55.42 | 163377 | 176543
15 | 39:13.69 | 2:58.31 | 176544 | 189924
16 | 42:12.25 | 2:35.55 | 189925 | 201604
17 | 44:48.05 | 2:45.56 | 201605 | 214035
18 | 47:33.61 | 3:07.40 | 214036 | 228100
19 | 50:41.26 | 3:11.06 | 228101 | 242431
Track 1
Filename F:\rips\Lester box\D2\01 - Them There Eyes.wav
Pre-gap length 0:00:02.00
Peak level 98.8 %
Track quality 100.0 %
Test CRC BB509D1D
Copy CRC BB509D1D
Track not present in AccurateRip database
Copy OK
Track 2
Filename F:\rips\Lester box\D2\02 - I Want a Little Girl.wav
Pre-gap length 0:00:02.00
Peak level 98.5 %
Track quality 100.0 %
Test CRC EDA5A7C9
Copy CRC EDA5A7C9
Track not present in AccurateRip database
Copy OK
Track 3
Filename F:\rips\Lester box\D2\03 - Pagin' the Devil.wav
Pre-gap length 0:00:02.00
Peak level 99.2 %
Track quality 99.9 %
Test CRC A8652806
Copy CRC A8652806
Track not present in AccurateRip database
Copy OK
Track 4
Filename F:\rips\Lester box\D2\04 - I Can't Believe That You're In Love With Me.wav
Pre-gap length 0:00:02.00
Peak level 98.4 %
Track quality 100.0 %
Test CRC 70ACA953
Copy CRC 70ACA953
Track not present in AccurateRip database
Copy OK
Track 5
Filename F:\rips\Lester box\D2\05 - Back In Your Own Backyard.wav
Pre-gap length 0:00:02.00
Peak level 98.3 %
Track quality 100.0 %
Test CRC 5AC9682A
Copy CRC 5AC9682A
Track not present in AccurateRip database
Copy OK
Track 6
Filename F:\rips\Lester box\D2\06 - You Can't Be Mine.wav
Pre-gap length 0:00:02.00
Peak level 99.7 %
Track quality 100.0 %
Test CRC 48A5ECC8
Copy CRC 48A5ECC8
Track not present in AccurateRip database
Copy OK
Track 7
Filename F:\rips\Lester box\D2\07 - Say It With a Kiss.wav
Pre-gap length 0:00:02.00
Peak level 98.6 %
Track quality 100.0 %
Test CRC F93CADF2
Copy CRC F93CADF2
Track not present in AccurateRip database
Copy OK
Track 8
Filename F:\rips\Lester box\D2\08 - I Ain't Got Nobody.wav
Pre-gap length 0:00:02.00
Peak level 98.3 %
Track quality 100.0 %
Test CRC 2720FAF0
Copy CRC 2720FAF0
Track not present in AccurateRip database
Copy OK
Track 9
Filename F:\rips\Lester box\D2\09 - Goin' To Chicago.wav
Pre-gap length 0:00:02.00
Peak level 99.0 %
Track quality 100.0 %
Test CRC 6DF028A7
Copy CRC 6DF028A7
Track not present in AccurateRip database
Copy OK
Track 10
Filename F:\rips\Lester box\D2\10 - (Let Me) Live And Love Tonight.wav
Pre-gap length 0:00:02.00
Peak level 98.1 %
Track quality 99.9 %
Test CRC 8C9AB397
Copy CRC 8C9AB397
Track not present in AccurateRip database
Copy OK
Track 11
Filename F:\rips\Lester box\D2\11 - Love Me Or Leave Me.wav
Pre-gap length 0:00:02.00
Peak level 99.5 %
Track quality 100.0 %
Test CRC 43864863
Copy CRC 43864863
Track not present in AccurateRip database
Copy OK
Track 12
Filename F:\rips\Lester box\D2\12 - China Boy.wav
Pre-gap length 0:00:02.00
Peak level 99.1 %
Track quality 100.0 %
Test CRC 292492C7
Copy CRC 292492C7
Track not present in AccurateRip database
Copy OK
Track 13
Filename F:\rips\Lester box\D2\13 - Exactly Like You.wav
Pre-gap length 0:00:02.00
Peak level 98.4 %
Track quality 100.0 %
Test CRC E9385662
Copy CRC E9385662
Track not present in AccurateRip database
Copy OK
Track 14
Filename F:\rips\Lester box\D2\14 - On the Sunny Side Of the Street.wav
Pre-gap length 0:00:02.00
Peak level 99.5 %
Track quality 100.0 %
Test CRC 56ADE7E8
Copy CRC 56ADE7E8
Track not present in AccurateRip database
Copy OK
Track 15
Filename F:\rips\Lester box\D2\15 - Upright Organ Blues.wav
Pre-gap length 0:00:02.00
Peak level 99.9 %
Track quality 100.0 %
Test CRC 2A8ED2A1
Copy CRC 2A8ED2A1
Track not present in AccurateRip database
Copy OK
Track 16
Filename F:\rips\Lester box\D2\16 - Who.wav
Pre-gap length 0:00:02.00
Peak level 98.1 %
Track quality 99.9 %
Test CRC 330C1882
Copy CRC 330C1882
Track not present in AccurateRip database
Copy OK
Track 17
Filename F:\rips\Lester box\D2\17 - Jazz Me Blues.wav
Pre-gap length 0:00:02.00
Peak level 99.7 %
Track quality 100.0 %
Test CRC EAB41F0A
Copy CRC EAB41F0A
Track not present in AccurateRip database
Copy OK
Track 18
Filename F:\rips\Lester box\D2\18 - Dickie's Dream.wav
Pre-gap length 0:00:02.00
Peak level 98.6 %
Track quality 100.0 %
Test CRC DFC73E15
Copy CRC DFC73E15
Track not present in AccurateRip database
Copy OK
Track 19
Filename F:\rips\Lester box\D2\19 - Lester Leaps In.wav
Pre-gap length 0:00:02.00
Peak level 99.3 %
Track quality 100.0 %
Test CRC 5057F0E0
Copy CRC 5057F0E0
Track not present in AccurateRip database
Copy OK
None of the tracks are present in the AccurateRip database
No errors occurred
End of status report

Содержание индексной карты (.CUE)

REM GENRE Jazz
REM DATE 2001
REM DISCID 170CA013
REM COMMENT "ExactAudioCopy v0.99pb5"
PERFORMER "Lester Young"
TITLE "Portrait - Disc 02 (Lester Leaps In)"
FILE "01 - Them There Eyes.flac" WAVE
TRACK 01 AUDIO
TITLE "Them There Eyes"
PERFORMER "Lester Young"
INDEX 01 00:00:00
TRACK 02 AUDIO
TITLE "I Want a Little Girl"
PERFORMER "Lester Young"
INDEX 00 02:56:70
FILE "02 - I Want a Little Girl.flac" WAVE
INDEX 01 00:00:00
TRACK 03 AUDIO
TITLE "Pagin' the Devil"
PERFORMER "Lester Young"
INDEX 00 02:51:03
FILE "03 - Pagin' the Devil.flac" WAVE
INDEX 01 00:00:00
TRACK 04 AUDIO
TITLE "I Can't Believe That You're In Love With Me"
PERFORMER "Lester Young"
INDEX 00 02:53:74
FILE "04 - I Can't Believe That You're In Love With Me.flac" WAVE
INDEX 01 00:00:00
TRACK 05 AUDIO
TITLE "Back In Your Own Backyard"
PERFORMER "Lester Young"
INDEX 00 02:43:39
FILE "05 - Back In Your Own Backyard.flac" WAVE
INDEX 01 00:00:00
TRACK 06 AUDIO
TITLE "You Can't Be Mine"
PERFORMER "Lester Young"
INDEX 00 02:38:65
FILE "06 - You Can't Be Mine.flac" WAVE
INDEX 01 00:00:00
TRACK 07 AUDIO
TITLE "Say It With a Kiss"
PERFORMER "Lester Young"
INDEX 00 02:19:00
FILE "07 - Say It With a Kiss.flac" WAVE
INDEX 01 00:00:00
TRACK 08 AUDIO
TITLE "I Ain't Got Nobody"
PERFORMER "Lester Young"
INDEX 00 02:32:34
FILE "08 - I Ain't Got Nobody.flac" WAVE
INDEX 01 00:00:00
TRACK 09 AUDIO
TITLE "Goin' To Chicago"
PERFORMER "Lester Young"
INDEX 00 02:54:66
FILE "09 - Goin' To Chicago.flac" WAVE
INDEX 01 00:00:00
TRACK 10 AUDIO
TITLE "(Let Me) Live And Love Tonight"
PERFORMER "Lester Young"
INDEX 00 03:05:52
FILE "10 - (Let Me) Live And Love Tonight.flac" WAVE
INDEX 01 00:00:00
TRACK 11 AUDIO
TITLE "Love Me Or Leave Me"
PERFORMER "Lester Young"
INDEX 00 02:58:25
FILE "11 - Love Me Or Leave Me.flac" WAVE
INDEX 01 00:00:00
TRACK 12 AUDIO
TITLE "China Boy"
PERFORMER "Lester Young"
INDEX 00 02:30:04
FILE "12 - China Boy.flac" WAVE
INDEX 01 00:00:00
TRACK 13 AUDIO
TITLE "Exactly Like You"
PERFORMER "Lester Young"
INDEX 00 02:48:15
FILE "13 - Exactly Like You.flac" WAVE
INDEX 01 00:00:00
TRACK 14 AUDIO
TITLE "On the Sunny Side Of the Street"
PERFORMER "Lester Young"
INDEX 00 02:39:30
FILE "14 - On the Sunny Side Of the Street.flac" WAVE
INDEX 01 00:00:00
TRACK 15 AUDIO
TITLE "Upright Organ Blues"
PERFORMER "Lester Young"
INDEX 00 02:53:42
FILE "15 - Upright Organ Blues.flac" WAVE
INDEX 01 00:00:00
TRACK 16 AUDIO
TITLE "Who"
PERFORMER "Lester Young"
INDEX 00 02:56:31
FILE "16 - Who.flac" WAVE
INDEX 01 00:00:00
TRACK 17 AUDIO
TITLE "Jazz Me Blues"
PERFORMER "Lester Young"
INDEX 00 02:33:55
FILE "17 - Jazz Me Blues.flac" WAVE
INDEX 01 00:00:00
TRACK 18 AUDIO
TITLE "Dickie's Dream"
PERFORMER "Lester Young"
INDEX 00 02:43:56
FILE "18 - Dickie's Dream.flac" WAVE
INDEX 01 00:00:00
TRACK 19 AUDIO
TITLE "Lester Leaps In"
PERFORMER "Lester Young"
INDEX 00 03:05:40
FILE "19 - Lester Leaps In.flac" WAVE
INDEX 01 00:00:00

CD3{I Never Knew} - 01:01:28(1939-1943)

Треклист:

01. The Man I Love [0:03:05.34]
02. Laughing At Life [0:02:53.30]
03. Time On My Hands [0:03:05.74]
04. All Of Me [0:03:02.22]
05. Let's Do It [0:02:56.25]
06. Indiana [0:04:48.62]
07. I Can't Get Started [0:04:50.86]
08. Tea For Two [0:04:40.97]
09. Body And Soul [0:05:03.48]
10. I Got Rhythm [0:04:09.33]
11. I'm For It Too [0:04:08.65]
12. Hello Babe [0:03:07.77]
13. Linger Awhile [0:03:04.73]
14. Just You, Just Me [0:03:10.66]
15. I Never Knew [0:03:08.58]
16. Afternoon Of a Basie-Ite [0:03:08.72]
17. Sometimes I'm Happy [0:03:03.48]

Лог создания рипа

Exact Audio Copy V0.99 prebeta 5 from 4. May 2009
EAC extraction logfile from 24. October 2009, 20:27
Lester Young / Portrait - Disc 03 (I Never Knew)
Used drive : PIONEER DVD-RW DVR-116D Adapter: 5 ID: 2
Read mode : Secure
Utilize accurate stream : Yes
Defeat audio cache : Yes
Make use of C2 pointers : No
Read offset correction : 96
Overread into Lead-In and Lead-Out : No
Fill up missing offset samples with silence : Yes
Delete leading and trailing silent blocks : No
Null samples used in CRC calculations : Yes
Used interface : Installed external ASPI interface
Gap handling : Appended to previous track
Used output format : Internal WAV Routines
Sample format : 44.100 Hz; 16 Bit; Stereo
TOC of the extracted CD
Track | Start | Length | Start sector | End sector
---------------------------------------------------------
1 | 0:00.00 | 3:05.26 | 0 | 13900
2 | 3:05.26 | 2:53.23 | 13901 | 26898
3 | 5:58.49 | 3:05.56 | 26899 | 40829
4 | 9:04.30 | 3:02.17 | 40830 | 54496
5 | 12:06.47 | 2:56.19 | 54497 | 67715
6 | 15:02.66 | 4:48.47 | 67716 | 89362
7 | 19:51.38 | 4:50.65 | 89363 | 111177
8 | 24:42.28 | 4:40.73 | 111178 | 132250
9 | 29:23.26 | 5:03.36 | 132251 | 155011
10 | 34:26.62 | 4:09.25 | 155012 | 173711
11 | 38:36.12 | 4:08.49 | 173712 | 192360
12 | 42:44.61 | 3:07.58 | 192361 | 206443
13 | 45:52.44 | 3:04.55 | 206444 | 220298
14 | 48:57.24 | 3:10.50 | 220299 | 234598
15 | 52:07.74 | 3:08.44 | 234599 | 248742
16 | 55:16.43 | 3:08.54 | 248743 | 262896
17 | 58:25.22 | 3:03.36 | 262897 | 276657
Track 1
Filename F:\rips\Lester box\D3\01 - The Man I Love.wav
Pre-gap length 0:00:02.00
Peak level 99.3 %
Track quality 100.0 %
Test CRC 929CF4BE
Copy CRC 929CF4BE
Track not present in AccurateRip database
Copy OK
Track 2
Filename F:\rips\Lester box\D3\02 - Laughing At Life.wav
Pre-gap length 0:00:02.00
Peak level 99.2 %
Track quality 100.0 %
Test CRC E06FD157
Copy CRC E06FD157
Track not present in AccurateRip database
Copy OK
Track 3
Filename F:\rips\Lester box\D3\03 - Time On My Hands.wav
Pre-gap length 0:00:02.00
Peak level 98.3 %
Track quality 100.0 %
Test CRC 7A4C134B
Copy CRC 7A4C134B
Track not present in AccurateRip database
Copy OK
Track 4
Filename F:\rips\Lester box\D3\04 - All Of Me.wav
Pre-gap length 0:00:02.00
Peak level 98.5 %
Track quality 100.0 %
Test CRC 3D5DBFB3
Copy CRC 3D5DBFB3
Track not present in AccurateRip database
Copy OK
Track 5
Filename F:\rips\Lester box\D3\05 - Let's Do It.wav
Pre-gap length 0:00:02.00
Peak level 98.8 %
Track quality 100.0 %
Test CRC 6FB26EEA
Copy CRC 6FB26EEA
Track not present in AccurateRip database
Copy OK
Track 6
Filename F:\rips\Lester box\D3\06 - Indiana.wav
Pre-gap length 0:00:02.00
Peak level 99.1 %
Track quality 100.0 %
Test CRC 3993AEE1
Copy CRC 3993AEE1
Track not present in AccurateRip database
Copy OK
Track 7
Filename F:\rips\Lester box\D3\07 - I Can't Get Started.wav
Pre-gap length 0:00:02.00
Peak level 99.2 %
Track quality 99.9 %
Test CRC C9EA09DB
Copy CRC C9EA09DB
Track not present in AccurateRip database
Copy OK
Track 8
Filename F:\rips\Lester box\D3\08 - Tea For Two.wav
Pre-gap length 0:00:02.00
Peak level 98.3 %
Track quality 100.0 %
Test CRC 76E08A92
Copy CRC 76E08A92
Track not present in AccurateRip database
Copy OK
Track 9
Filename F:\rips\Lester box\D3\09 - Body And Soul.wav
Pre-gap length 0:00:02.00
Peak level 100.0 %
Track quality 99.9 %
Test CRC 5E8E246F
Copy CRC 5E8E246F
Track not present in AccurateRip database
Copy OK
Track 10
Filename F:\rips\Lester box\D3\10 - I Got Rhythm.wav
Pre-gap length 0:00:02.00
Peak level 98.9 %
Track quality 100.0 %
Test CRC 381B94EF
Copy CRC 381B94EF
Track not present in AccurateRip database
Copy OK
Track 11
Filename F:\rips\Lester box\D3\11 - I'm For It Too.wav
Pre-gap length 0:00:02.00
Peak level 98.6 %
Track quality 100.0 %
Test CRC EF766D03
Copy CRC EF766D03
Track not present in AccurateRip database
Copy OK
Track 12
Filename F:\rips\Lester box\D3\12 - Hello Babe.wav
Pre-gap length 0:00:02.00
Peak level 98.5 %
Track quality 100.0 %
Test CRC E4C9515F
Copy CRC E4C9515F
Track not present in AccurateRip database
Copy OK
Track 13
Filename F:\rips\Lester box\D3\13 - Linger Awhile.wav
Pre-gap length 0:00:02.00
Peak level 97.9 %
Track quality 100.0 %
Test CRC DF0AE0FA
Copy CRC DF0AE0FA
Track not present in AccurateRip database
Copy OK
Track 14
Filename F:\rips\Lester box\D3\14 - Just You, Just Me.wav
Pre-gap length 0:00:02.00
Peak level 98.6 %
Track quality 100.0 %
Test CRC E0BEE7D4
Copy CRC E0BEE7D4
Track not present in AccurateRip database
Copy OK
Track 15
Filename F:\rips\Lester box\D3\15 - I Never Knew.wav
Pre-gap length 0:00:02.00
Peak level 99.1 %
Track quality 100.0 %
Test CRC BC7C69C4
Copy CRC BC7C69C4
Track not present in AccurateRip database
Copy OK
Track 16
Filename F:\rips\Lester box\D3\16 - Afternoon Of a Basie-Ite.wav
Pre-gap length 0:00:02.00
Peak level 98.5 %
Track quality 100.0 %
Test CRC 1A16456C
Copy CRC 1A16456C
Track not present in AccurateRip database
Copy OK
Track 17
Filename F:\rips\Lester box\D3\17 - Sometimes I'm Happy.wav
Pre-gap length 0:00:02.00
Peak level 98.8 %
Track quality 100.0 %
Test CRC F8A2571B
Copy CRC F8A2571B
Track not present in AccurateRip database
Copy OK
None of the tracks are present in the AccurateRip database
No errors occurred
End of status report

Содержание индексной карты (.CUE)

REM GENRE Jazz
REM DATE 2001
REM DISCID 020E6811
REM COMMENT "ExactAudioCopy v0.99pb5"
PERFORMER "Lester Young"
TITLE "Portrait - Disc 03 (I Never Knew)"
FILE "01 - The Man I Love.flac" WAVE
TRACK 01 AUDIO
TITLE "The Man I Love"
PERFORMER "Lester Young"
INDEX 01 00:00:00
TRACK 02 AUDIO
TITLE "Laughing At Life"
PERFORMER "Lester Young"
INDEX 00 03:03:26
FILE "02 - Laughing At Life.flac" WAVE
INDEX 01 00:00:00
TRACK 03 AUDIO
TITLE "Time On My Hands"
PERFORMER "Lester Young"
INDEX 00 02:51:23
FILE "03 - Time On My Hands.flac" WAVE
INDEX 01 00:00:00
TRACK 04 AUDIO
TITLE "All Of Me"
PERFORMER "Lester Young"
INDEX 00 03:03:56
FILE "04 - All Of Me.flac" WAVE
INDEX 01 00:00:00
TRACK 05 AUDIO
TITLE "Let's Do It"
PERFORMER "Lester Young"
INDEX 00 03:00:17
FILE "05 - Let's Do It.flac" WAVE
INDEX 01 00:00:00
TRACK 06 AUDIO
TITLE "Indiana"
PERFORMER "Lester Young"
INDEX 00 02:54:19
FILE "06 - Indiana.flac" WAVE
INDEX 01 00:00:00
TRACK 07 AUDIO
TITLE "I Can't Get Started"
PERFORMER "Lester Young"
INDEX 00 04:46:47
FILE "07 - I Can't Get Started.flac" WAVE
INDEX 01 00:00:00
TRACK 08 AUDIO
TITLE "Tea For Two"
PERFORMER "Lester Young"
INDEX 00 04:48:65
FILE "08 - Tea For Two.flac" WAVE
INDEX 01 00:00:00
TRACK 09 AUDIO
TITLE "Body And Soul"
PERFORMER "Lester Young"
INDEX 00 04:38:73
FILE "09 - Body And Soul.flac" WAVE
INDEX 01 00:00:00
TRACK 10 AUDIO
TITLE "I Got Rhythm"
PERFORMER "Lester Young"
INDEX 00 05:01:36
FILE "10 - I Got Rhythm.flac" WAVE
INDEX 01 00:00:00
TRACK 11 AUDIO
TITLE "I'm For It Too"
PERFORMER "Lester Young"
INDEX 00 04:07:25
FILE "11 - I'm For It Too.flac" WAVE
INDEX 01 00:00:00
TRACK 12 AUDIO
TITLE "Hello Babe"
PERFORMER "Lester Young"
INDEX 00 04:06:49
FILE "12 - Hello Babe.flac" WAVE
INDEX 01 00:00:00
TRACK 13 AUDIO
TITLE "Linger Awhile"
PERFORMER "Lester Young"
INDEX 00 03:05:58
FILE "13 - Linger Awhile.flac" WAVE
INDEX 01 00:00:00
TRACK 14 AUDIO
TITLE "Just You, Just Me"
PERFORMER "Lester Young"
INDEX 00 03:02:55
FILE "14 - Just You, Just Me.flac" WAVE
INDEX 01 00:00:00
TRACK 15 AUDIO
TITLE "I Never Knew"
PERFORMER "Lester Young"
INDEX 00 03:08:50
FILE "15 - I Never Knew.flac" WAVE
INDEX 01 00:00:00
TRACK 16 AUDIO
TITLE "Afternoon Of a Basie-Ite"
PERFORMER "Lester Young"
INDEX 00 03:06:44
FILE "16 - Afternoon Of a Basie-Ite.flac" WAVE
INDEX 01 00:00:00
TRACK 17 AUDIO
TITLE "Sometimes I'm Happy"
PERFORMER "Lester Young"
INDEX 00 03:06:54
FILE "17 - Sometimes I'm Happy.flac" WAVE
INDEX 01 00:00:00

CD4{Lester Leaps Again} - 01:02:55(1944-1945)

Треклист:

01. After Theatre Jump [0:04:43.25]
02. Six Cats And a Prince [0:04:08.96]
03. Lester Leaps Again [0:04:25.26]
04. Destination KC [0:03:51.26]
05. Three Little Words [0:02:53.81]
06. Jo-Jo [0:03:19.57]
07. I Got Rhythm [0:03:16.41]
08. Four O'Clock Drag [0:02:50.26]
09. These Foolish Things [0:02:56.57]
10. Exercise In Swing [0:03:00.66]
11. Salute To Fats [0:02:59.52]
12. Basie English [0:03:00.40]
13. Blue Lester [0:03:23.13]
14. Ghost Of Chance [0:03:18.98]
15. Indiana [0:02:55.29]
16. Jump Lester Jump [0:03:16.34]
17. D.B. Blues [0:02:58.74]
18. Lester Blows Again [0:02:30.40]
19. These Foolish Things [0:03:06.46]

Лог создания рипа

Exact Audio Copy V0.99 prebeta 5 from 4. May 2009
EAC extraction logfile from 24. October 2009, 21:35
Lester Young / Portrait - Disc 04 (Lester Leaps Again)
Used drive : PIONEER DVD-RW DVR-116D Adapter: 5 ID: 2
Read mode : Secure
Utilize accurate stream : Yes
Defeat audio cache : Yes
Make use of C2 pointers : No
Read offset correction : 96
Overread into Lead-In and Lead-Out : No
Fill up missing offset samples with silence : Yes
Delete leading and trailing silent blocks : No
Null samples used in CRC calculations : Yes
Used interface : Installed external ASPI interface
Gap handling : Appended to previous track
Used output format : Internal WAV Routines
Sample format : 44.100 Hz; 16 Bit; Stereo
TOC of the extracted CD
Track | Start | Length | Start sector | End sector
---------------------------------------------------------
1 | 0:00.00 | 4:43.19 | 0 | 21243
2 | 4:43.19 | 4:08.72 | 21244 | 39915
3 | 8:52.16 | 4:25.20 | 39916 | 59810
4 | 13:17.36 | 3:51.20 | 59811 | 77155
5 | 17:08.56 | 2:53.61 | 77156 | 90191
6 | 20:02.42 | 3:19.43 | 90192 | 105159
7 | 23:22.10 | 3:16.31 | 105160 | 119890
8 | 26:38.41 | 2:50.20 | 119891 | 132660
9 | 29:28.61 | 2:56.43 | 132661 | 145903
10 | 32:25.29 | 3:00.50 | 145904 | 159453
11 | 35:26.04 | 2:59.39 | 159454 | 172917
12 | 38:25.43 | 3:00.30 | 172918 | 186447
13 | 41:25.73 | 3:23.10 | 186448 | 201682
14 | 44:49.08 | 3:18.74 | 201683 | 216606
15 | 48:08.07 | 2:55.22 | 216607 | 229753
16 | 51:03.29 | 3:16.26 | 229754 | 244479
17 | 54:19.55 | 2:58.56 | 244480 | 257885
18 | 57:18.36 | 2:30.30 | 257886 | 269165
19 | 59:48.66 | 3:06.35 | 269166 | 283150
Track 1
Filename F:\rips\Lester box\D4\01 - After Theatre Jump.wav
Pre-gap length 0:00:02.00
Peak level 98.2 %
Track quality 99.9 %
Test CRC 28C3AC34
Copy CRC 28C3AC34
Track not present in AccurateRip database
Copy OK
Track 2
Filename F:\rips\Lester box\D4\02 - Six Cats And a Prince.wav
Pre-gap length 0:00:02.00
Peak level 98.6 %
Track quality 100.0 %
Test CRC B4A58BCE
Copy CRC B4A58BCE
Track not present in AccurateRip database
Copy OK
Track 3
Filename F:\rips\Lester box\D4\03 - Lester Leaps Again.wav
Pre-gap length 0:00:02.00
Peak level 98.7 %
Track quality 100.0 %
Test CRC 63E7A26B
Copy CRC 63E7A26B
Track not present in AccurateRip database
Copy OK
Track 4
Filename F:\rips\Lester box\D4\04 - Destination KC.wav
Pre-gap length 0:00:02.00
Peak level 99.1 %
Track quality 100.0 %
Test CRC 459F1288
Copy CRC 459F1288
Track not present in AccurateRip database
Copy OK
Track 5
Filename F:\rips\Lester box\D4\05 - Three Little Words.wav
Pre-gap length 0:00:02.00
Peak level 98.3 %
Track quality 100.0 %
Test CRC A320FD1C
Copy CRC A320FD1C
Track not present in AccurateRip database
Copy OK
Track 6
Filename F:\rips\Lester box\D4\06 - Jo-Jo.wav
Pre-gap length 0:00:02.00
Peak level 98.6 %
Track quality 99.9 %
Test CRC 99AA01DD
Copy CRC 99AA01DD
Track not present in AccurateRip database
Copy OK
Track 7
Filename F:\rips\Lester box\D4\07 - I Got Rhythm.wav
Pre-gap length 0:00:02.00
Peak level 98.8 %
Track quality 100.0 %
Test CRC 4716EFB8
Copy CRC 4716EFB8
Track not present in AccurateRip database
Copy OK
Track 8
Filename F:\rips\Lester box\D4\08 - Four O'Clock Drag.wav
Pre-gap length 0:00:02.00
Peak level 97.6 %
Track quality 100.0 %
Test CRC 576798FF
Copy CRC 576798FF
Track not present in AccurateRip database
Copy OK
Track 9
Filename F:\rips\Lester box\D4\09 - These Foolish Things.wav
Pre-gap length 0:00:02.00
Peak level 99.4 %
Track quality 100.0 %
Test CRC F8395455
Copy CRC F8395455
Track not present in AccurateRip database
Copy OK
Track 10
Filename F:\rips\Lester box\D4\10 - Exercise In Swing.wav
Pre-gap length 0:00:02.00
Peak level 98.8 %
Track quality 99.9 %
Test CRC 75EE6B33
Copy CRC 75EE6B33
Track not present in AccurateRip database
Copy OK
Track 11
Filename F:\rips\Lester box\D4\11 - Salute To Fats.wav
Pre-gap length 0:00:02.00
Peak level 99.8 %
Track quality 100.0 %
Test CRC 4D33E596
Copy CRC 4D33E596
Track not present in AccurateRip database
Copy OK
Track 12
Filename F:\rips\Lester box\D4\12 - Basie English.wav
Pre-gap length 0:00:02.00
Peak level 99.8 %
Track quality 100.0 %
Test CRC F0524129
Copy CRC F0524129
Track not present in AccurateRip database
Copy OK
Track 13
Filename F:\rips\Lester box\D4\13 - Blue Lester.wav
Pre-gap length 0:00:02.00
Peak level 99.8 %
Track quality 100.0 %
Test CRC D932AF15
Copy CRC D932AF15
Track not present in AccurateRip database
Copy OK
Track 14
Filename F:\rips\Lester box\D4\14 - Ghost Of Chance.wav
Pre-gap length 0:00:02.00
Peak level 98.5 %
Track quality 100.0 %
Test CRC 7FEBD08F
Copy CRC 7FEBD08F
Track not present in AccurateRip database
Copy OK
Track 15
Filename F:\rips\Lester box\D4\15 - Indiana.wav
Pre-gap length 0:00:02.00
Peak level 99.5 %
Track quality 99.9 %
Test CRC D32299C6
Copy CRC D32299C6
Track not present in AccurateRip database
Copy OK
Track 16
Filename F:\rips\Lester box\D4\16 - Jump Lester Jump.wav
Pre-gap length 0:00:02.00
Peak level 99.7 %
Track quality 100.0 %
Test CRC 846A40E3
Copy CRC 846A40E3
Track not present in AccurateRip database
Copy OK
Track 17
Filename F:\rips\Lester box\D4\17 - D.B. Blues.wav
Pre-gap length 0:00:02.00
Peak level 97.5 %
Track quality 100.0 %
Test CRC A417FD03
Copy CRC A417FD03
Track not present in AccurateRip database
Copy OK
Track 18
Filename F:\rips\Lester box\D4\18 - Lester Blows Again.wav
Pre-gap length 0:00:02.00
Peak level 98.8 %
Track quality 99.9 %
Test CRC 9A7FAFB0
Copy CRC 9A7FAFB0
Track not present in AccurateRip database
Copy OK
Track 19
Filename F:\rips\Lester box\D4\19 - These Foolish Things.wav
Pre-gap length 0:00:02.00
Peak level 100.0 %
Track quality 99.9 %
Test CRC C0BC271C
Copy CRC C0BC271C
Track not present in AccurateRip database
Copy OK
None of the tracks are present in the AccurateRip database
No errors occurred
End of status report

Содержание индексной карты (.CUE)

REM GENRE Jazz
REM DATE 2001
REM DISCID FE0EBF13
REM COMMENT "ExactAudioCopy v0.99pb5"
PERFORMER "Lester Young"
TITLE "Portrait - Disc 04 (Lester Leaps Again)"
FILE "01 - After Theatre Jump.flac" WAVE
TRACK 01 AUDIO
TITLE "After Theatre Jump"
PERFORMER "Lester Young"
INDEX 01 00:00:00
TRACK 02 AUDIO
TITLE "Six Cats And a Prince"
PERFORMER "Lester Young"
INDEX 00 04:41:19
FILE "02 - Six Cats And a Prince.flac" WAVE
INDEX 01 00:00:00
TRACK 03 AUDIO
TITLE "Lester Leaps Again"
PERFORMER "Lester Young"
INDEX 00 04:06:72
FILE "03 - Lester Leaps Again.flac" WAVE
INDEX 01 00:00:00
TRACK 04 AUDIO
TITLE "Destination KC"
PERFORMER "Lester Young"
INDEX 00 04:23:20
FILE "04 - Destination KC.flac" WAVE
INDEX 01 00:00:00
TRACK 05 AUDIO
TITLE "Three Little Words"
PERFORMER "Lester Young"
INDEX 00 03:49:20
FILE "05 - Three Little Words.flac" WAVE
INDEX 01 00:00:00
TRACK 06 AUDIO
TITLE "Jo-Jo"
PERFORMER "Lester Young"
INDEX 00 02:51:61
FILE "06 - Jo-Jo.flac" WAVE
INDEX 01 00:00:00
TRACK 07 AUDIO
TITLE "I Got Rhythm"
PERFORMER "Lester Young"
INDEX 00 03:17:43
FILE "07 - I Got Rhythm.flac" WAVE
INDEX 01 00:00:00
TRACK 08 AUDIO
TITLE "Four O'Clock Drag"
PERFORMER "Lester Young"
INDEX 00 03:14:31
FILE "08 - Four O'Clock Drag.flac" WAVE
INDEX 01 00:00:00
TRACK 09 AUDIO
TITLE "These Foolish Things"
PERFORMER "Lester Young"
INDEX 00 02:48:20
FILE "09 - These Foolish Things.flac" WAVE
INDEX 01 00:00:00
TRACK 10 AUDIO
TITLE "Exercise In Swing"
PERFORMER "Lester Young"
INDEX 00 02:54:43
FILE "10 - Exercise In Swing.flac" WAVE
INDEX 01 00:00:00
TRACK 11 AUDIO
TITLE "Salute To Fats"
PERFORMER "Lester Young"
INDEX 00 02:58:50
FILE "11 - Salute To Fats.flac" WAVE
INDEX 01 00:00:00
TRACK 12 AUDIO
TITLE "Basie English"
PERFORMER "Lester Young"
INDEX 00 02:57:39
FILE "12 - Basie English.flac" WAVE
INDEX 01 00:00:00
TRACK 13 AUDIO
TITLE "Blue Lester"
PERFORMER "Lester Young"
INDEX 00 02:58:30
FILE "13 - Blue Lester.flac" WAVE
INDEX 01 00:00:00
TRACK 14 AUDIO
TITLE "Ghost Of Chance"
PERFORMER "Lester Young"
INDEX 00 03:21:10
FILE "14 - Ghost Of Chance.flac" WAVE
INDEX 01 00:00:00
TRACK 15 AUDIO
TITLE "Indiana"
PERFORMER "Lester Young"
INDEX 00 03:16:74
FILE "15 - Indiana.flac" WAVE
INDEX 01 00:00:00
TRACK 16 AUDIO
TITLE "Jump Lester Jump"
PERFORMER "Lester Young"
INDEX 00 02:53:22
FILE "16 - Jump Lester Jump.flac" WAVE
INDEX 01 00:00:00
TRACK 17 AUDIO
TITLE "D.B. Blues"
PERFORMER "Lester Young"
INDEX 00 03:14:26
FILE "17 - D.B. Blues.flac" WAVE
INDEX 01 00:00:00
TRACK 18 AUDIO
TITLE "Lester Blows Again"
PERFORMER "Lester Young"
INDEX 00 02:56:56
FILE "18 - Lester Blows Again.flac" WAVE
INDEX 01 00:00:00
TRACK 19 AUDIO
TITLE "These Foolish Things"
PERFORMER "Lester Young"
INDEX 00 02:28:30
FILE "19 - These Foolish Things.flac" WAVE
INDEX 01 00:00:00

CD5{Jammin' With Lester} - 01:00:33(1945-1946)

Треклист:

01. Jumpin' At Mesner's [0:02:43.86]
02. It's Only A Paper Moon [0:03:05.00]
03. After You've Gone [0:02:41.02]
04. Lover Come Back To Me [0:02:36.26]
05. Jammin' With Lester [0:03:01.14]
06. Back To the Land [0:03:50.93]
07. I Cover the Waterfront [0:04:01.53]
08. Somebody Loves Me [0:03:51.68]
09. I've Found a New Baby [0:04:02.57]
10. The Man I Love [0:04:46.42]
11. Peg O' My Heart [0:04:01.66]
12. I Want To Be Happy [0:03:56.69]
13. You, You're Driving Me Crazy [0:03:04.33]
14. New Lester Leaps In [0:02:55.90]
15. Lester's Be Bop Boogie [0:03:13.05]
16. She's Funny That Way [0:03:18.20]
17. Sunday [0:02:22.80]
18. S.M. Blues [0:03:00.00]

Лог создания рипа

Exact Audio Copy V0.99 prebeta 5 from 4. May 2009
EAC extraction logfile from 24. October 2009, 22:47
Lester Young / Portrait - Disc 05 (Jammin' With Lester)
Used drive : PIONEER DVD-RW DVR-116D Adapter: 5 ID: 2
Read mode : Secure
Utilize accurate stream : Yes
Defeat audio cache : Yes
Make use of C2 pointers : No
Read offset correction : 96
Overread into Lead-In and Lead-Out : No
Fill up missing offset samples with silence : Yes
Delete leading and trailing silent blocks : No
Null samples used in CRC calculations : Yes
Used interface : Installed external ASPI interface
Gap handling : Appended to previous track
Used output format : Internal WAV Routines
Sample format : 44.100 Hz; 16 Bit; Stereo
TOC of the extracted CD
Track | Start | Length | Start sector | End sector
---------------------------------------------------------
1 | 0:00.00 | 2:43.65 | 0 | 12289
2 | 2:43.65 | 3:05.00 | 12290 | 26164
3 | 5:48.65 | 2:41.02 | 26165 | 38241
4 | 8:29.67 | 2:36.20 | 38242 | 49961
5 | 11:06.12 | 3:01.11 | 49962 | 63547
6 | 14:07.23 | 3:50.70 | 63548 | 80867
7 | 17:58.18 | 4:01.40 | 80868 | 98982
8 | 21:59.58 | 3:51.51 | 98983 | 116358
9 | 25:51.34 | 4:02.43 | 116359 | 134551
10 | 29:54.02 | 4:46.32 | 134552 | 156033
11 | 34:40.34 | 4:01.50 | 156034 | 174158
12 | 38:42.09 | 3:56.52 | 174159 | 191910
13 | 42:38.61 | 3:04.25 | 191911 | 205735
14 | 45:43.11 | 2:55.68 | 205736 | 218928
15 | 48:39.04 | 3:13.04 | 218929 | 233407
16 | 51:52.08 | 3:18.15 | 233408 | 248272
17 | 55:10.23 | 2:22.60 | 248273 | 258982
18 | 57:33.08 | 3:00.00 | 258983 | 272482
Track 1
Filename F:\rips\Lester box\D5\01 - Jumpin' At Mesner's.wav
Pre-gap length 0:00:02.00
Peak level 100.0 %
Track quality 100.0 %
Test CRC 4C1A9D2C
Copy CRC 4C1A9D2C
Track not present in AccurateRip database
Copy OK
Track 2
Filename F:\rips\Lester box\D5\02 - It's Only A Paper Moon.wav
Pre-gap length 0:00:02.00
Peak level 98.7 %
Track quality 100.0 %
Test CRC 25B3DD9D
Copy CRC 25B3DD9D
Track not present in AccurateRip database
Copy OK
Track 3
Filename F:\rips\Lester box\D5\03 - After You've Gone.wav
Pre-gap length 0:00:02.00
Peak level 99.7 %
Track quality 99.9 %
Test CRC 290E2F71
Copy CRC 290E2F71
Track not present in AccurateRip database
Copy OK
Track 4
Filename F:\rips\Lester box\D5\04 - Lover Come Back To Me.wav
Pre-gap length 0:00:02.00
Peak level 98.2 %
Track quality 100.0 %
Test CRC BFE572DA
Copy CRC BFE572DA
Track not present in AccurateRip database
Copy OK
Track 5
Filename F:\rips\Lester box\D5\05 - Jammin' With Lester.wav
Pre-gap length 0:00:02.00
Peak level 99.7 %
Track quality 100.0 %
Test CRC A164A384
Copy CRC A164A384
Track not present in AccurateRip database
Copy OK
Track 6
Filename F:\rips\Lester box\D5\06 - Back To the Land.wav
Pre-gap length 0:00:02.00
Peak level 99.7 %
Track quality 100.0 %
Test CRC 1688BF30
Copy CRC 1688BF30
Track not present in AccurateRip database
Copy OK
Track 7
Filename F:\rips\Lester box\D5\07 - I Cover the Waterfront.wav
Pre-gap length 0:00:02.00
Peak level 99.2 %
Track quality 100.0 %
Test CRC B5C39E1A
Copy CRC B5C39E1A
Track not present in AccurateRip database
Copy OK
Track 8
Filename F:\rips\Lester box\D5\08 - Somebody Loves Me.wav
Pre-gap length 0:00:02.00
Peak level 99.0 %
Track quality 100.0 %
Test CRC E360B675
Copy CRC E360B675
Track not present in AccurateRip database
Copy OK
Track 9
Filename F:\rips\Lester box\D5\09 - I've Found a New Baby.wav
Pre-gap length 0:00:02.00
Peak level 99.2 %
Track quality 100.0 %
Test CRC 220BDBD6
Copy CRC 220BDBD6
Track not present in AccurateRip database
Copy OK
Track 10
Filename F:\rips\Lester box\D5\10 - The Man I Love.wav
Pre-gap length 0:00:02.00
Peak level 100.0 %
Track quality 100.0 %
Test CRC 8CC19220
Copy CRC 8CC19220
Track not present in AccurateRip database
Copy OK
Track 11
Filename F:\rips\Lester box\D5\11 - Peg O' My Heart.wav
Pre-gap length 0:00:02.00
Peak level 100.0 %
Track quality 100.0 %
Test CRC D6535CC4
Copy CRC D6535CC4
Track not present in AccurateRip database
Copy OK
Track 12
Filename F:\rips\Lester box\D5\12 - I Want To Be Happy.wav
Pre-gap length 0:00:02.00
Peak level 98.9 %
Track quality 100.0 %
Test CRC 43B6EB8A
Copy CRC 43B6EB8A
Track not present in AccurateRip database
Copy OK
Track 13
Filename F:\rips\Lester box\D5\13 - You, You're Driving Me Crazy.wav
Pre-gap length 0:00:02.00
Peak level 99.4 %
Track quality 100.0 %
Test CRC CB3E209A
Copy CRC CB3E209A
Track not present in AccurateRip database
Copy OK
Track 14
Filename F:\rips\Lester box\D5\14 - New Lester Leaps In.wav
Pre-gap length 0:00:02.00
Peak level 98.6 %
Track quality 100.0 %
Test CRC 1729A6E0
Copy CRC 1729A6E0
Track not present in AccurateRip database
Copy OK
Track 15
Filename F:\rips\Lester box\D5\15 - Lester's Be Bop Boogie.wav
Pre-gap length 0:00:02.00
Peak level 97.8 %
Track quality 100.0 %
Test CRC BCF71629
Copy CRC BCF71629
Track not present in AccurateRip database
Copy OK
Track 16
Filename F:\rips\Lester box\D5\16 - She's Funny That Way.wav
Pre-gap length 0:00:02.00
Peak level 99.4 %
Track quality 100.0 %
Test CRC 250D05E0
Copy CRC 250D05E0
Track not present in AccurateRip database
Copy OK
Track 17
Filename F:\rips\Lester box\D5\17 - Sunday.wav
Pre-gap length 0:00:02.00
Peak level 100.0 %
Track quality 99.9 %
Test CRC EBF69F8E
Copy CRC EBF69F8E
Track not present in AccurateRip database
Copy OK
Track 18
Filename F:\rips\Lester box\D5\18 - S.M. Blues.wav
Pre-gap length 0:00:02.00
Peak level 100.0 %
Track quality 99.9 %
Test CRC 3FF2D55F
Copy CRC 3FF2D55F
Track not present in AccurateRip database
Copy OK
None of the tracks are present in the AccurateRip database
No errors occurred
End of status report

Содержание индексной карты (.CUE)

REM GENRE Jazz
REM DATE 2001
REM DISCID E20E3112
REM COMMENT "ExactAudioCopy v0.99pb5"
PERFORMER "Lester Young"
TITLE "Portrait - Disc 05 (Jammin' With Lester)"
FILE "01 - Jumpin' At Mesner's.flac" WAVE
TRACK 01 AUDIO
TITLE "Jumpin' At Mesner's"
PERFORMER "Lester Young"
INDEX 01 00:00:00
TRACK 02 AUDIO
TITLE "It's Only A Paper Moon"
PERFORMER "Lester Young"
INDEX 00 02:41:65
FILE "02 - It's Only A Paper Moon.flac" WAVE
INDEX 01 00:00:00
TRACK 03 AUDIO
TITLE "After You've Gone"
PERFORMER "Lester Young"
INDEX 00 03:03:00
FILE "03 - After You've Gone.flac" WAVE
INDEX 01 00:00:00
TRACK 04 AUDIO
TITLE "Lover Come Back To Me"
PERFORMER "Lester Young"
INDEX 00 02:39:02
FILE "04 - Lover Come Back To Me.flac" WAVE
INDEX 01 00:00:00
TRACK 05 AUDIO
TITLE "Jammin' With Lester"
PERFORMER "Lester Young"
INDEX 00 02:34:20
FILE "05 - Jammin' With Lester.flac" WAVE
INDEX 01 00:00:00
TRACK 06 AUDIO
TITLE "Back To the Land"
PERFORMER "Lester Young"
INDEX 00 02:59:11
FILE "06 - Back To the Land.flac" WAVE
INDEX 01 00:00:00
TRACK 07 AUDIO
TITLE "I Cover the Waterfront"
PERFORMER "Lester Young"
INDEX 00 03:48:70
FILE "07 - I Cover the Waterfront.flac" WAVE
INDEX 01 00:00:00
TRACK 08 AUDIO
TITLE "Somebody Loves Me"
PERFORMER "Lester Young"
INDEX 00 03:59:40
FILE "08 - Somebody Loves Me.flac" WAVE
INDEX 01 00:00:00
TRACK 09 AUDIO
TITLE "I've Found a New Baby"
PERFORMER "Lester Young"
INDEX 00 03:49:51
FILE "09 - I've Found a New Baby.flac" WAVE
INDEX 01 00:00:00
TRACK 10 AUDIO
TITLE "The Man I Love"
PERFORMER "Lester Young"
INDEX 00 04:00:43
FILE "10 - The Man I Love.flac" WAVE
INDEX 01 00:00:00
TRACK 11 AUDIO
TITLE "Peg O' My Heart"
PERFORMER "Lester Young"
INDEX 00 04:44:32
FILE "11 - Peg O' My Heart.flac" WAVE
INDEX 01 00:00:00
TRACK 12 AUDIO
TITLE "I Want To Be Happy"
PERFORMER "Lester Young"
INDEX 00 03:59:50
FILE "12 - I Want To Be Happy.flac" WAVE
INDEX 01 00:00:00
TRACK 13 AUDIO
TITLE "You, You're Driving Me Crazy"
PERFORMER "Lester Young"
INDEX 00 03:54:52
FILE "13 - You, You're Driving Me Crazy.flac" WAVE
INDEX 01 00:00:00
TRACK 14 AUDIO
TITLE "New Lester Leaps In"
PERFORMER "Lester Young"
INDEX 00 03:02:25
FILE "14 - New Lester Leaps In.flac" WAVE
INDEX 01 00:00:00
TRACK 15 AUDIO
TITLE "Lester's Be Bop Boogie"
PERFORMER "Lester Young"
INDEX 00 02:53:68
FILE "15 - Lester's Be Bop Boogie.flac" WAVE
INDEX 01 00:00:00
TRACK 16 AUDIO
TITLE "She's Funny That Way"
PERFORMER "Lester Young"
INDEX 00 03:11:04
FILE "16 - She's Funny That Way.flac" WAVE
INDEX 01 00:00:00
TRACK 17 AUDIO
TITLE "Sunday"
PERFORMER "Lester Young"
INDEX 00 03:16:15
FILE "17 - Sunday.flac" WAVE
INDEX 01 00:00:00
TRACK 18 AUDIO
TITLE "S.M. Blues"
PERFORMER "Lester Young"
INDEX 00 02:20:60
FILE "18 - S.M. Blues.flac" WAVE
INDEX 01 00:00:00

CD6{Movin' With Lester} - 00:50:38(1946-1949)

Треклист:

01. Jumpin' With Symphony Sid [0:03:10.38]
02. No Eyes Blues [0:02:58.93]
03. Sax-O-Be-Bop [0:02:52.12]
04. On The Sunny Side Of The Street [0:02:59.14]
05. Easy Does It [0:02:31.80]
06. Movin' With Lester [0:03:09.72]
07. One O'Clock Jump [0:02:37.50]
08. Jumpin' At The Woodside [0:02:58.81]
09. Confessin' [0:02:30.22]
10. Lester Smooths It Out [0:02:53.57]
11. Just Coolin' [0:02:57.90]
12. Tea For Two [0:03:07.21]
13. East Of The Sun (West Of The Moon) [0:03:08.40]
14. The Sheik Of Araby [0:02:30.24]
15. Somthing To Remember You By [0:02:44.26]
16. Crazy Over JZ [0:02:42.12]
17. Ding Dong [0:02:25.52]
18. Blues 'N' Bells [0:02:20.50]

Лог создания рипа

Exact Audio Copy V0.99 prebeta 5 from 4. May 2009
EAC extraction logfile from 24. October 2009, 23:38
Lester Young / Portrait - Disc 06 (Movin' With Lester)
Used drive : PIONEER DVD-RW DVR-116D Adapter: 5 ID: 2
Read mode : Secure
Utilize accurate stream : Yes
Defeat audio cache : Yes
Make use of C2 pointers : No
Read offset correction : 96
Overread into Lead-In and Lead-Out : No
Fill up missing offset samples with silence : Yes
Delete leading and trailing silent blocks : No
Null samples used in CRC calculations : Yes
Used interface : Installed external ASPI interface
Gap handling : Appended to previous track
Used output format : Internal WAV Routines
Sample format : 44.100 Hz; 16 Bit; Stereo
TOC of the extracted CD
Track | Start | Length | Start sector | End sector
---------------------------------------------------------
1 | 0:00.00 | 3:10.29 | 0 | 14278
2 | 3:10.29 | 2:58.70 | 14279 | 27698
3 | 6:09.24 | 2:52.09 | 27699 | 40607
4 | 9:01.33 | 2:59.11 | 40608 | 54043
5 | 12:00.44 | 2:31.60 | 54044 | 65428
6 | 14:32.29 | 3:09.54 | 65429 | 79657
7 | 17:42.08 | 2:37.38 | 79658 | 91470
8 | 20:19.46 | 2:58.61 | 91471 | 104881
9 | 23:18.32 | 2:30.17 | 104882 | 116148
10 | 25:48.49 | 2:53.43 | 116149 | 129166
11 | 28:42.17 | 2:57.68 | 129167 | 142509
12 | 31:40.10 | 3:07.16 | 142510 | 156550
13 | 34:47.26 | 3:08.30 | 156551 | 170680
14 | 37:55.56 | 2:30.18 | 170681 | 181948
15 | 40:25.74 | 2:44.20 | 181949 | 194268
16 | 43:10.19 | 2:42.09 | 194269 | 206427
17 | 45:52.28 | 2:25.39 | 206428 | 217341
18 | 48:17.67 | 2:20.38 | 217342 | 227879
Track 1
Filename F:\rips\Lester box\D6\01 - Jumpin' With Symphony Sid.wav
Pre-gap length 0:00:02.00
Peak level 99.3 %
Track quality 100.0 %
Test CRC 07B656EF
Copy CRC 07B656EF
Track not present in AccurateRip database
Copy OK
Track 2
Filename F:\rips\Lester box\D6\02 - No Eyes Blues.wav
Pre-gap length 0:00:02.00
Peak level 99.5 %
Track quality 100.0 %
Test CRC F2886B6F
Copy CRC F2886B6F
Track not present in AccurateRip database
Copy OK
Track 3
Filename F:\rips\Lester box\D6\03 - Sax-O-Be-Bop.wav
Pre-gap length 0:00:02.00
Peak level 98.3 %
Track quality 100.0 %
Test CRC CF03B09C
Copy CRC CF03B09C
Track not present in AccurateRip database
Copy OK
Track 4
Filename F:\rips\Lester box\D6\04 - On The Sunny Side Of The Street.wav
Pre-gap length 0:00:02.00
Peak level 100.0 %
Track quality 100.0 %
Test CRC EAA2104F
Copy CRC EAA2104F
Track not present in AccurateRip database
Copy OK
Track 5
Filename F:\rips\Lester box\D6\05 - Easy Does It.wav
Pre-gap length 0:00:02.00
Peak level 99.2 %
Track quality 100.0 %
Test CRC 9090AE84
Copy CRC 9090AE84
Track not present in AccurateRip database
Copy OK
Track 6
Filename F:\rips\Lester box\D6\06 - Movin' With Lester.wav
Pre-gap length 0:00:02.00
Peak level 98.4 %
Track quality 100.0 %
Test CRC 5B517B99
Copy CRC 5B517B99
Track not present in AccurateRip database
Copy OK
Track 7
Filename F:\rips\Lester box\D6\07 - One O'Clock Jump.wav
Pre-gap length 0:00:02.00
Peak level 99.8 %
Track quality 100.0 %
Test CRC 46B83CF6
Copy CRC 46B83CF6
Track not present in AccurateRip database
Copy OK
Track 8
Filename F:\rips\Lester box\D6\08 - Jumpin' At The Woodside.wav
Pre-gap length 0:00:02.00
Peak level 99.1 %
Track quality 100.0 %
Test CRC 60A20BCD
Copy CRC 60A20BCD
Track not present in AccurateRip database
Copy OK
Track 9
Filename F:\rips\Lester box\D6\09 - Confessin'.wav
Pre-gap length 0:00:02.00
Peak level 98.6 %
Track quality 100.0 %
Test CRC 676C78CD
Copy CRC 676C78CD
Track not present in AccurateRip database
Copy OK
Track 10
Filename F:\rips\Lester box\D6\10 - Lester Smooths It Out.wav
Pre-gap length 0:00:02.00
Peak level 98.3 %
Track quality 100.0 %
Test CRC BC6140E4
Copy CRC BC6140E4
Track not present in AccurateRip database
Copy OK
Track 11
Filename F:\rips\Lester box\D6\11 - Just Coolin'.wav
Pre-gap length 0:00:02.00
Peak level 99.2 %
Track quality 100.0 %
Test CRC 8BBB130A
Copy CRC 8BBB130A
Track not present in AccurateRip database
Copy OK
Track 12
Filename F:\rips\Lester box\D6\12 - Tea For Two.wav
Pre-gap length 0:00:02.00
Peak level 99.4 %
Track quality 100.0 %
Test CRC 84ED699D
Copy CRC 84ED699D
Track not present in AccurateRip database
Copy OK
Track 13
Filename F:\rips\Lester box\D6\13 - East Of The Sun (West Of The Moon).wav
Pre-gap length 0:00:02.00
Peak level 99.8 %
Track quality 100.0 %
Test CRC 53A3032D
Copy CRC 53A3032D
Track not present in AccurateRip database
Copy OK
Track 14
Filename F:\rips\Lester box\D6\14 - The Sheik Of Araby.wav
Pre-gap length 0:00:02.00
Peak level 99.3 %
Track quality 100.0 %
Test CRC 48776BD8
Copy CRC 48776BD8
Track not present in AccurateRip database
Copy OK
Track 15
Filename F:\rips\Lester box\D6\15 - Somthing To Remember You By.wav
Pre-gap length 0:00:02.00
Peak level 98.9 %
Track quality 100.0 %
Test CRC 89E05D38
Copy CRC 89E05D38
Track not present in AccurateRip database
Copy OK
Track 16
Filename F:\rips\Lester box\D6\16 - Crazy Over JZ.wav
Pre-gap length 0:00:02.00
Peak level 98.2 %
Track quality 100.0 %
Test CRC 3B0354DA
Copy CRC 3B0354DA
Track not present in AccurateRip database
Copy OK
Track 17
Filename F:\rips\Lester box\D6\17 - Ding Dong.wav
Pre-gap length 0:00:02.00
Peak level 100.0 %
Track quality 100.0 %
Test CRC A64F8B84
Copy CRC A64F8B84
Track not present in AccurateRip database
Copy OK
Track 18
Filename F:\rips\Lester box\D6\18 - Blues 'N' Bells.wav
Pre-gap length 0:00:02.00
Peak level 99.0 %
Track quality 100.0 %
Test CRC B0DABBD1
Copy CRC B0DABBD1
Track not present in AccurateRip database
Copy OK
None of the tracks are present in the AccurateRip database
No errors occurred
End of status report

Содержание индексной карты (.CUE)

REM GENRE Jazz
REM DATE 2001
REM DISCID F20BDE12
REM COMMENT "ExactAudioCopy v0.99pb5"
PERFORMER "Lester Young"
TITLE "Portrait - Disc 06 (Movin' With Lester)"
FILE "01 - Jumpin' With Symphony Sid.flac" WAVE
TRACK 01 AUDIO
TITLE "Jumpin' With Symphony Sid"
PERFORMER "Lester Young"
INDEX 01 00:00:00
TRACK 02 AUDIO
TITLE "No Eyes Blues"
PERFORMER "Lester Young"
INDEX 00 03:08:29
FILE "02 - No Eyes Blues.flac" WAVE
INDEX 01 00:00:00
TRACK 03 AUDIO
TITLE "Sax-O-Be-Bop"
PERFORMER "Lester Young"
INDEX 00 02:56:70
FILE "03 - Sax-O-Be-Bop.flac" WAVE
INDEX 01 00:00:00
TRACK 04 AUDIO
TITLE "On The Sunny Side Of The Street"
PERFORMER "Lester Young"
INDEX 00 02:50:09
FILE "04 - On The Sunny Side Of The Street.flac" WAVE
INDEX 01 00:00:00
TRACK 05 AUDIO
TITLE "Easy Does It"
PERFORMER "Lester Young"
INDEX 00 02:57:11
FILE "05 - Easy Does It.flac" WAVE
INDEX 01 00:00:00
TRACK 06 AUDIO
TITLE "Movin' With Lester"
PERFORMER "Lester Young"
INDEX 00 02:29:60
FILE "06 - Movin' With Lester.flac" WAVE
INDEX 01 00:00:00
TRACK 07 AUDIO
TITLE "One O'Clock Jump"
PERFORMER "Lester Young"
INDEX 00 03:07:54
FILE "07 - One O'Clock Jump.flac" WAVE
INDEX 01 00:00:00
TRACK 08 AUDIO
TITLE "Jumpin' At The Woodside"
PERFORMER "Lester Young"
INDEX 00 02:35:38
FILE "08 - Jumpin' At The Woodside.flac" WAVE
INDEX 01 00:00:00
TRACK 09 AUDIO
TITLE "Confessin'"
PERFORMER "Lester Young"
INDEX 00 02:56:61
FILE "09 - Confessin'.flac" WAVE
INDEX 01 00:00:00
TRACK 10 AUDIO
TITLE "Lester Smooths It Out"
PERFORMER "Lester Young"
INDEX 00 02:28:17
FILE "10 - Lester Smooths It Out.flac" WAVE
INDEX 01 00:00:00
TRACK 11 AUDIO
TITLE "Just Coolin'"
PERFORMER "Lester Young"
INDEX 00 02:51:43
FILE "11 - Just Coolin'.flac" WAVE
INDEX 01 00:00:00
TRACK 12 AUDIO
TITLE "Tea For Two"
PERFORMER "Lester Young"
INDEX 00 02:55:68
FILE "12 - Tea For Two.flac" WAVE
INDEX 01 00:00:00
TRACK 13 AUDIO
TITLE "East Of The Sun (West Of The Moon)"
PERFORMER "Lester Young"
INDEX 00 03:05:16
FILE "13 - East Of The Sun (West Of The Moon).flac" WAVE
INDEX 01 00:00:00
TRACK 14 AUDIO
TITLE "The Sheik Of Araby"
PERFORMER "Lester Young"
INDEX 00 03:06:30
FILE "14 - The Sheik Of Araby.flac" WAVE
INDEX 01 00:00:00
TRACK 15 AUDIO
TITLE "Somthing To Remember You By"
PERFORMER "Lester Young"
INDEX 00 02:28:18
FILE "15 - Somthing To Remember You By.flac" WAVE
INDEX 01 00:00:00
TRACK 16 AUDIO
TITLE "Crazy Over JZ"
PERFORMER "Lester Young"
INDEX 00 02:42:20
FILE "16 - Crazy Over JZ.flac" WAVE
INDEX 01 00:00:00
TRACK 17 AUDIO
TITLE "Ding Dong"
PERFORMER "Lester Young"
INDEX 00 02:40:09
FILE "17 - Ding Dong.flac" WAVE
INDEX 01 00:00:00
TRACK 18 AUDIO
TITLE "Blues 'N' Bells"
PERFORMER "Lester Young"
INDEX 00 02:23:39
FILE "18 - Blues 'N' Bells.flac" WAVE
INDEX 01 00:00:00

CD7{Little Pee's Blues} - 00:55:29(1949-1951)

Треклист:

01. June Bug [0:02:36.61]
02. Too Marvelous For Words [0:02:58.46]
03. 'Deed I Do [0:03:12.32]
04. Encore [0:03:05.58]
05. Polka Dots and Moonbeams [0:03:36.94]
06. Up and At 'Em [0:03:45.00]
07. Three Little Words [0:03:14.14]
08. Count Every Star [0:02:40.37]
09. It All Depends On You [0:03:14.28]
10. Neenah [0:03:25.78]
11. Jeepers Creepers [0:03:03.17]
12. Thou Swell [0:02:54.68]
13. September In the Rain [0:03:04.25]
14. Undercover (Girl) Blues [0:02:41.65]
15. Frenesi [0:02:57.53]
16. Pete's Cafe [0:03:32.76]
17. Little Pee's Blues [0:02:38.06]
18. A Foggy Day [0:02:47.78]

Лог создания рипа

Exact Audio Copy V0.99 prebeta 5 from 4. May 2009
EAC extraction logfile from 25. October 2009, 0:34
Lester Young / Portrait - Disc 07 (Little Pee's Blues)
Used drive : PIONEER DVD-RW DVR-116D Adapter: 5 ID: 2
Read mode : Secure
Utilize accurate stream : Yes
Defeat audio cache : Yes
Make use of C2 pointers : No
Read offset correction : 96
Overread into Lead-In and Lead-Out : No
Fill up missing offset samples with silence : Yes
Delete leading and trailing silent blocks : No
Null samples used in CRC calculations : Yes
Used interface : Installed external ASPI interface
Gap handling : Appended to previous track
Used output format : Internal WAV Routines
Sample format : 44.100 Hz; 16 Bit; Stereo
TOC of the extracted CD
Track | Start | Length | Start sector | End sector
---------------------------------------------------------
1 | 0:00.00 | 2:36.46 | 0 | 11745
2 | 2:36.46 | 2:58.35 | 11746 | 25130
3 | 5:35.06 | 3:12.24 | 25131 | 39554
4 | 8:47.30 | 3:05.44 | 39555 | 53473
5 | 11:52.74 | 3:36.71 | 53474 | 69744
6 | 15:29.70 | 3:45.00 | 69745 | 86619
7 | 19:14.70 | 3:14.11 | 86620 | 101180
8 | 22:29.06 | 2:40.28 | 101181 | 113208
9 | 25:09.34 | 3:14.21 | 113209 | 127779
10 | 28:23.55 | 3:25.59 | 127780 | 143213
11 | 31:49.39 | 3:03.13 | 143214 | 156951
12 | 34:52.52 | 2:54.51 | 156952 | 170052
13 | 37:47.28 | 3:04.19 | 170053 | 183871
14 | 40:51.47 | 2:41.49 | 183872 | 195995
15 | 43:33.21 | 2:57.40 | 195996 | 209310
16 | 46:30.61 | 3:32.57 | 209311 | 225267
17 | 50:03.43 | 2:38.05 | 225268 | 237122
18 | 52:41.48 | 2:47.59 | 237123 | 249706
Track 1
Filename F:\rips\Lester box\D7\01 - June Bug.wav
Pre-gap length 0:00:02.00
Peak level 98.6 %
Track quality 100.0 %
Test CRC 9C527DB1
Copy CRC 9C527DB1
Track not present in AccurateRip database
Copy OK
Track 2
Filename F:\rips\Lester box\D7\02 - Too Marvelous For Words.wav
Pre-gap length 0:00:02.00
Peak level 100.0 %
Track quality 100.0 %
Test CRC 24A28454
Copy CRC 24A28454
Track not present in AccurateRip database
Copy OK
Track 3
Filename F:\rips\Lester box\D7\03 - 'Deed I Do.wav
Pre-gap length 0:00:02.00
Peak level 99.5 %
Track quality 100.0 %
Test CRC 9CABF6E4
Copy CRC 9CABF6E4
Track not present in AccurateRip database
Copy OK
Track 4
Filename F:\rips\Lester box\D7\04 - Encore.wav
Pre-gap length 0:00:02.00
Peak level 98.3 %
Track quality 100.0 %
Test CRC BD4D95FC
Copy CRC BD4D95FC
Track not present in AccurateRip database
Copy OK
Track 5
Filename F:\rips\Lester box\D7\05 - Polka Dots and Moonbeams.wav
Pre-gap length 0:00:02.00
Peak level 99.8 %
Track quality 100.0 %
Test CRC 0B8A6FBF
Copy CRC 0B8A6FBF
Track not present in AccurateRip database
Copy OK
Track 6
Filename F:\rips\Lester box\D7\06 - Up and At 'Em.wav
Pre-gap length 0:00:02.00
Peak level 98.8 %
Track quality 100.0 %
Test CRC B3285BA2
Copy CRC B3285BA2
Track not present in AccurateRip database
Copy OK
Track 7
Filename F:\rips\Lester box\D7\07 - Three Little Words.wav
Pre-gap length 0:00:02.00
Peak level 99.1 %
Track quality 100.0 %
Test CRC DD0540BC
Copy CRC DD0540BC
Track not present in AccurateRip database
Copy OK
Track 8
Filename F:\rips\Lester box\D7\08 - Count Every Star.wav
Pre-gap length 0:00:02.00
Peak level 99.2 %
Track quality 99.9 %
Test CRC BB36D94C
Copy CRC BB36D94C
Track not present in AccurateRip database
Copy OK
Track 9
Filename F:\rips\Lester box\D7\09 - It All Depends On You.wav
Pre-gap length 0:00:02.00
Peak level 99.7 %
Track quality 99.9 %
Test CRC 9A09658E
Copy CRC 9A09658E
Track not present in AccurateRip database
Copy OK
Track 10
Filename F:\rips\Lester box\D7\10 - Neenah.wav
Pre-gap length 0:00:02.00
Peak level 98.4 %
Track quality 100.0 %
Test CRC D58B89C9
Copy CRC D58B89C9
Track not present in AccurateRip database
Copy OK
Track 11
Filename F:\rips\Lester box\D7\11 - Jeepers Creepers.wav
Pre-gap length 0:00:02.00
Peak level 99.1 %
Track quality 100.0 %
Test CRC 1A5019A3
Copy CRC 1A5019A3
Track not present in AccurateRip database
Copy OK
Track 12
Filename F:\rips\Lester box\D7\12 - Thou Swell.wav
Pre-gap length 0:00:02.00
Peak level 99.2 %
Track quality 99.9 %
Test CRC 6B8B298C
Copy CRC 6B8B298C
Track not present in AccurateRip database
Copy OK
Track 13
Filename F:\rips\Lester box\D7\13 - September In the Rain.wav
Pre-gap length 0:00:02.00
Peak level 99.9 %
Track quality 100.0 %
Test CRC 2443F4CC
Copy CRC 2443F4CC
Track not present in AccurateRip database
Copy OK
Track 14
Filename F:\rips\Lester box\D7\14 - Undercover (Girl) Blues.wav
Pre-gap length 0:00:02.00
Peak level 100.0 %
Track quality 100.0 %
Test CRC 8B80151A
Copy CRC 8B80151A
Track not present in AccurateRip database
Copy OK
Track 15
Filename F:\rips\Lester box\D7\15 - Frenesi.wav
Pre-gap length 0:00:02.00
Peak level 98.4 %
Track quality 100.0 %
Test CRC 9B4949F6
Copy CRC 9B4949F6
Track not present in AccurateRip database
Copy OK
Track 16
Filename F:\rips\Lester box\D7\16 - Pete's Cafe.wav
Pre-gap length 0:00:02.00
Peak level 99.1 %
Track quality 100.0 %
Test CRC 645D0373
Copy CRC 645D0373
Track not present in AccurateRip database
Copy OK
Track 17
Filename F:\rips\Lester box\D7\17 - Little Pee's Blues.wav
Pre-gap length 0:00:02.00
Peak level 100.0 %
Track quality 99.9 %
Test CRC AD331BCA
Copy CRC AD331BCA
Track not present in AccurateRip database
Copy OK
Track 18
Filename F:\rips\Lester box\D7\18 - A Foggy Day.wav
Pre-gap length 0:00:02.00
Peak level 99.0 %
Track quality 100.0 %
Test CRC 2366CF19
Copy CRC 2366CF19
Track not present in AccurateRip database
Copy OK
None of the tracks are present in the AccurateRip database
No errors occurred
End of status report

Содержание индексной карты (.CUE)

REM GENRE Jazz
REM DATE 2001
REM DISCID E50D0112
REM COMMENT "ExactAudioCopy v0.99pb5

_________________
Other forum [Profile] [PM]
Display posts from previous:    
Reply to topic

The time now is: Today 19:46

All times are GMT + 3 Hours



You cannot post new topics in this forum
You cannot reply to topics in this forum
You cannot edit your posts in this forum
You cannot delete your posts in this forum
You cannot vote in polls in this forum
You cannot attach files in this forum
You cannot download files in this forum