Сегодня идет свободное скачивание без начисления Download

Бриолин / Grease (Рэндал Клайзер / Randal Kleiser) [1978 г., комедия, мелодрама, мюзикл, HDRip-AVC] [AVO] (Либергал)

Ответить на тему
 
Автор
Сообщение

maxkiller ®

Пол:

Стаж: 3 года 10 месяцев

Сообщений: 282

Торрент-статистика

Пост 18-Янв-2014 14:44

[Цитировать]

Бриолин / Grease -
Год выпуска: 1978
Страна: США
Жанр: комедия, мелодрама, мюзикл
Продолжительность: 01:50:29
Перевод: Авторский (одноголосный, закадровый) [Либергал]
Субтитры: SRT (Русские, Английские)
Режиссер: Рэндал Клайзер / Randal Kleiser
В ролях: Джон Траволта, Оливия Ньютон-Джон, Стокард Чэннинг, Ив Арден, Джефф Конэуэй, Джоэн Блонделл-Описание: Динамичная экранизация давно идущего бродвейского шоу, в котором воссоздается жизнь американской молодежи в 1950-х годах. Дэнни Зуко возглавляет юношескую банду. К ней примыкает и Сэнди, девушка из Австралии. Вскоре происходит неминуемое: Дэнни и Сэнди влюбляются друг в друга. Они будут ссориться, мириться, снова ссориться и мириться.-
Качество: HDRip-AVC [исх. BDRip 1080p]
Формат: MKV
Видео кодек: X.264
Аудио кодек: AC-3
Видео: AVC, 992x416, 23.976 fps, 1630 kbps avg, 0.165 bit/pixel
Аудио: AC3, 48.0 KHz, 6 ch, 448 Kbps [AVO]

MI

E:\INTERNET\GREASE.1978.HDRip-AVC.AVO [LIBERGAL]+SUB.mkv
General
Unique ID : 220042164904309977716262939372327924411 (0xA58A94564A9174A48B5591F1AE61F2BB)
Complete name : E:\INTERNET\GREASE.1978.HDRip-AVC.AVO [LIBERGAL]+SUB.mkv
Format : Matroska
Format version : Version 4 / Version 2
File size : 1.61 GiB
Duration : 1h 50mn
Overall bit rate : 2 081 Kbps
Movie name : Бриолин / Grease (1978).AVO[Libergal]
Encoded date : UTC 2014-01-18 10:08:14
Writing application : mkvmerge v6.1.0 ('Old Devil') built on Mar 4 2013 09:10:42
Writing library : libebml v1.3.0 + libmatroska v1.4.0
Attachment : Yes
Video #1
ID : 1
Format : AVC
Format/Info : Advanced Video Codec
Format profile : [email protected]
Format settings, CABAC : Yes
Format settings, ReFrames : 14 frames
Codec ID : V_MPEG4/ISO/AVC
Duration : 1h 50mn
Bit rate : 1 630 Kbps
Width : 992 pixels
Height : 416 pixels
Display aspect ratio : 2.40:1
Frame rate : 23.976 fps
Color space : YUV
Chroma subsampling : 4:2:0
Bit depth : 8 bits
Scan type : Progressive
Bits/(Pixel*Frame) : 0.165
Stream size : 1.23 GiB (76%)
Writing library : x264 core 114 r1900 60ef1f8
Encoding settings : cabac=1 / ref=14 / deblock=1:-2:-2 / analyse=0x3:0x133 / me=umh / subme=10 / psy=1 / psy_rd=1.00:0.10 / mixed_ref=1 / me_range=32 / chroma_me=1 / trellis=2 / 8x8dct=1 / cqm=0 / deadzone=21,11 / fast_pskip=0 / chroma_qp_offset=-3 / threads=6 / sliced_threads=0 / nr=0 / decimate=1 / interlaced=0 / constrained_intra=0 / bframes=9 / b_pyramid=2 / b_adapt=2 / b_bias=0 / direct=3 / weightb=1 / open_gop=0 / weightp=2 / keyint=250 / keyint_min=23 / scenecut=40 / intra_refresh=0 / rc=2pass / mbtree=0 / bitrate=1630 / ratetol=1.0 / qcomp=0.60 / qpmin=10 / qpmax=51 / qpstep=4 / cplxblur=20.0 / qblur=0.5 / ip_ratio=1.40 / pb_ratio=1.30 / aq=2:1.00
Language : English
Matrix coefficients : BT.709-5, BT.1361, IEC 61966-2-4 709, SMPTE RP177
Audio #2
ID : 2
Format : AC-3
Format/Info : Audio Coding 3
Mode extension : CM (complete main)
Codec ID : A_AC3
Duration : 1h 50mn
Bit rate mode : Constant
Bit rate : 448 Kbps
Channel(s) : 6 channels
Channel positions : Front: L C R, Side: L R, LFE
Sampling rate : 48.0 KHz
Bit depth : 16 bits
Compression mode : Lossy
Stream size : 354 MiB (22%)
Title : AVO [LIBERGAL]
Language : Russian
Text #3
ID : 3
Format : UTF-8
Codec ID : S_TEXT/UTF8
Codec ID/Info : UTF-8 Plain Text
Language : Russian
Text #4
ID : 4
Format : UTF-8
Codec ID : S_TEXT/UTF8
Codec ID/Info : UTF-8 Plain Text
Language : English

Скриншоты

Вне форума [Профиль] [ЛС]
Показать сообщения:    
Ответить на тему

Текущее время: Сегодня 17:36

Часовой пояс: GMT + 3



Вы не можете начинать темы
Вы не можете отвечать на сообщения
Вы не можете редактировать свои сообщения
Вы не можете удалять свои сообщения
Вы не можете голосовать в опросах
Вы не можете прикреплять файлы к сообщениям
Вы не можете скачивать файлы