Сегодня идет свободное скачивание без начисления Download

Воин-призрак / Ghost Warrior (Дж. Ларри Кэрролл) [1985, фантастика, боевик, HDTVRip] MVO+DVO

Ответить на тему
 
Автор
Сообщение

O.S.A. ®

Пол:

Стаж: 3 года 1 месяц

Сообщений: 4520

Откуда: СССР

Торрент-статистика

Пост 26-Янв-2014 01:22

[Цитировать]

--Воин-призрак / Ghost Warrior-- Год выхода: 1985
Страна: США
Производство: Albert Band International Productions Inc., Empire Pictures, Harkham Productions, Swordkill
Жанр: фантастика, боевик
Продолжительность: 01:17:39
Перевод: Профессиональный (многоголосый) + Профессиональный (двухголосый)-Режиссер: Дж. Ларри Кэрролл-В ролях: Хироши Фуджиока, Джон Кэлвин, Джанет Джулиан, Чарльз Лампкин, Фрэнк Шуллер, Билл Мори, Энди Вуд, Роберт Кино, Джоан Фоли, Питер Ляпис...-О фильме: 1552 год. На глазах у самурая Йоши убивают любимую, а его самого сбрасывают в ледяное озеро. В наши дни сохранившееся во льду тело Йоши доставляют в США в секретную лабораторию, где древнего воина возвращают к жизни. Один из сотрудников лаборатории попытался стащить самурайский меч, за что и поплатился жизнью. Встревоженный самурай сбегает из больницы на свободу, где на улицах современного Лос-Анжелеса его окружает совершенно чужой и непонятный мир. Однако, когда он становится свидетелем нападения на беззащитного прохожего, Йоши спасает жертву грабежа. Предводитель банды выслеживает самурая и приводит с собой подмогу. Йоши и на этот раз расправляется с подонками. Но затем охоту на него начинает и полиция, разыскивающая древнего воина из лаборатории. Через четыре столетия история повторяется — самурай вновь оказывается один против всех.-- --Качество: HDTVRip
Формат: AVI
Видео кодек: XviD
Аудио кодек: AC3
Видео: 720x400 (1.80:1), 25.000 fps, XviD MPEG-4, ~1960 kbps avg, 0.272 bit/pixel
Аудио #1: [RUS] 48.0 kHz, AC3 Dolby Digital, 2/0 (L,R) ch, ~192.00 kbps avg || MVO (ТВ3)
Аудио #2: [RUS] 48.0 kHz, AC3 Dolby Digital, 2/0 (L,R) ch, ~192.00 kbps avg || DVO (НТВ+)
Аудио #3: [ENG] 48.0 kHz, AC3 Dolby Digital, 2/0 (L,R) ch, ~192.00 kbps avg || Оригинал
Субтитры: нет--

Media Info

Общее
Полное имя : Voin.prizrak.1985.HDTVRip.MediaClub.avi
Формат : AVI
Формат/Информация : Audio Video Interleave
Размер файла : 1,39 Гбайт
Продолжительность : 1 ч. 17 м.
Общий поток : 2555 Кбит/сек
Название фильма : MediaClub
Программа кодирования : VirtualDubMod 1.5.10.2 (build 2540/release)
Библиотека кодирования : VirtualDubMod build 2540/release
Видео
Идентификатор : 0
Формат : MPEG-4 Visual
Профиль формата : Advanced [email protected]
Параметр BVOP формата : 2
Параметр QPel формата : Нет
Параметр GMC формата : Без точки перехода
Параметр матрицы формата : Default (MPEG)
Идентификатор кодека : XVID
Идентификатор кодека/Подсказка : XviD
Продолжительность : 1 ч. 17 м.
Битрейт : 1960 Кбит/сек
Ширина : 720 пикселей
Высота : 400 пикселей
Соотношение сторон : 16:9
Частота кадров : 25,000 кадров/сек
Цветовое пространство : YUV
Субдискретизация насыщенности : 4:2:0
Битовая глубина : 8 бит
Тип развёртки : Прогрессивная
Метод сжатия : С потерями
Бит/(Пиксели*Кадры) : 0.272
Размер потока : 1,06 Гбайт (77%)
Библиотека кодирования : XviD 65
Аудио #1
Идентификатор : 1
Формат : AC-3
Формат/Информация : Audio Coding 3
Расширение режима : CM (complete main)
Параметр Endianness формата : Big
Идентификатор кодека : 2000
Продолжительность : 1 ч. 17 м.
Вид битрейта : Постоянный
Битрейт : 192 Кбит/сек
Каналы : 2 канала
Расположение каналов : Front: L R
Частота : 48,0 КГц
Битовая глубина : 16 бит
Метод сжатия : С потерями
Размер потока : 107 Мбайт (8%)
Выравнивание : Разделение по промежуткам
Продолжительность промежутка : 40 мс. (1,00 видеокадр)
Время предзагрузки промежутка : 500 мс.
Заголовок : Профессиональный многоголосый (ТВ3)
Язык : Russian
Аудио #2
Идентификатор : 2
Формат : AC-3
Формат/Информация : Audio Coding 3
Расширение режима : CM (complete main)
Параметр Endianness формата : Big
Идентификатор кодека : 2000
Продолжительность : 1 ч. 17 м.
Вид битрейта : Постоянный
Битрейт : 192 Кбит/сек
Каналы : 2 канала
Расположение каналов : Front: L R
Частота : 48,0 КГц
Битовая глубина : 16 бит
Метод сжатия : С потерями
Задержка видео : 7 с. 350 мс.
Размер потока : 107 Мбайт (8%)
Выравнивание : Разделение по промежуткам
Продолжительность промежутка : 40 мс. (1,00 видеокадр)
Время предзагрузки промежутка : 500 мс.
Заголовок : Профессиональный двухголосый (НТВ+)
Язык : Russian
Аудио #3
Идентификатор : 3
Формат : AC-3
Формат/Информация : Audio Coding 3
Расширение режима : CM (complete main)
Параметр Endianness формата : Big
Идентификатор кодека : 2000
Продолжительность : 1 ч. 17 м.
Вид битрейта : Постоянный
Битрейт : 192 Кбит/сек
Каналы : 2 канала
Расположение каналов : Front: L R
Частота : 48,0 КГц
Битовая глубина : 16 бит
Метод сжатия : С потерями
Размер потока : 107 Мбайт (8%)
Выравнивание : Разделение по промежуткам
Продолжительность промежутка : 40 мс. (1,00 видеокадр)
Время предзагрузки промежутка : 500 мс.
Язык : English

Скриншоты

       
-- --

_________________

===============================
IGNOSCITO SAEPE ALTERI, NUNQUAM TIBI
Вне форума [Профиль] [ЛС]
Показать сообщения:    
Ответить на тему

Текущее время: Сегодня 17:37

Часовой пояс: GMT + 3



Вы не можете начинать темы
Вы не можете отвечать на сообщения
Вы не можете редактировать свои сообщения
Вы не можете удалять свои сообщения
Вы не можете голосовать в опросах
Вы не можете прикреплять файлы к сообщениям
Вы не можете скачивать файлы