Сегодня идет свободное скачивание без начисления Download

Знахарь / Znachor (Ежи Гоффман)[1981.,Драма] DVDRip [H.264]

Ответить на тему
 
Автор
Сообщение

sashau ®

Пол:

Стаж: 4 года 11 месяцев

Сообщений: 3785

Торрент-статистика

Пост 27-Янв-2014 09:45

[Цитировать]

Знахарь / Znachor - Производство: Польша
Год выпуска: 1981
Жанр: Драма
Возраст: 16+ |зрителям, достигшим 16 лет|
Описание фильма:
С гениальным хирургом Рафалом Вильчуром происходит трагедия, изменившая всю его жизнь. Уходят жена и дочь, в тот же день он оказывается на улице без денег и документов. Ему приходится пережить несколько лет скитаний и горя. И все-таки судьба поворачивается к нему лицом.
Режиссер: Ежи Гоффман
Актеры: Ежи Биньчицкий, Анна Дымна, Томаш Стокингер, Бернард Лядыш, Божена Дыкель, Артур Барцис
Продолжительность: 02:06:48
Качество видео: DVDRip-AVC
Перевод: Дублированный

Дата мировой премьеры: 12 апреля 1982
Дата выхода DVD релиза: 8 декабря 2011, «Новый Диск»
Видеокодек: MPEG-4 AVC/H.264
Битрейт видео: 744 kb/s
Размер кадра: 688х416
Аудиокодек: AC3
Битрейт аудио: 192 kb/s CBR

MI

Код:
Формат : Matroska
Версия формата : Version 4 / Version 2
Размер файла : 850 Мбайт
Продолжительность : 2 ч. 6 м.
Общий поток : 938 Кбит/сек
Дата кодирования : UTC 2014-01-25 09:53:55
Программа кодирования : mkvmerge v6.7.0 ('Back to the Ground') 64bit built on Jan 8 2014 15:10:52
Библиотека кодирования : libebml v1.3.0 + libmatroska v1.4.1
Видео
Идентификатор : 1
Формат : AVC
Формат/Информация : Advanced Video Codec
Профиль формата : [url=mailto:[email protected]][email protected][/url]
Параметр CABAC формата : Да
Параметр ReFrames формата : 10 кадров
Идентификатор кодека : V_MPEG4/ISO/AVC
Продолжительность : 2 ч. 6 м.
Битрейт : 744 Кбит/сек
Ширина : 688 пикселей
Высота : 416 пикселей
Соотношение сторон : 1,654
Режим частоты кадров : Постоянный
Частота кадров : 25,000 кадров/сек
Цветовое пространство : YUV
Субдискретизация насыщенности : 4:2:0
Битовая глубина : 8 бит
Тип развёртки : Прогрессивная
Бит/(Пиксели*Кадры) : 0.104
Размер потока : 659 Мбайт (78%)
Библиотека кодирования : x264 core 138 r2358 9e941d1
Настройки программы : cabac=1 / ref=11 / deblock=1:-3:-3 / analyse=0x3:0x113 / me=umh / subme=11 / psy=1 / psy_rd=1.05:0.00 / mixed_ref=0 / me_range=64 / chroma_me=1 / trellis=2 / 8x8dct=1 / cqm=0 / deadzone=21,11 / fast_pskip=0 / chroma_qp_offset=-4 / threads=9 / lookahead_threads=2 / sliced_threads=0 / nr=0 / decimate=0 / interlaced=0 / bluray_compat=0 / constrained_intra=0 / bframes=12 / b_pyramid=1 / b_adapt=2 / b_bias=0 / direct=3 / weightb=1 / open_gop=0 / weightp=2 / keyint=221 / keyint_min=21 / scenecut=40 / intra_refresh=0 / rc_lookahead=24 / rc=2pass / mbtree=1 / bitrate=744 / ratetol=25.0 / qcomp=0.60 / qpmin=0 / qpmax=69 / qpstep=4 / cplxblur=20.0 / qblur=0.5 / ip_ratio=1.40 / aq=1:1.00
Язык : English
Default : Да
Forced : Нет
Аудио
Идентификатор : 2
Формат : AC-3
Формат/Информация : Audio Coding 3
Расширение режима : CM (complete main)
Параметр Endianness формата : Big
Идентификатор кодека : A_AC3
Продолжительность : 2 ч. 6 м.
Вид битрейта : Постоянный
Битрейт : 192 Кбит/сек
Каналы : 2 канала
Расположение каналов : Front: L R
Частота : 48,0 КГц
Битовая глубина : 16 бит
Метод сжатия : С потерями
Размер потока : 174 Мбайт (20%)
Язык : Russian
Default : Да
Forced : Нет
Сэмпл: Ссылка
Скриншоты:
         -          
Вне форума [Профиль] [ЛС]
Показать сообщения:    
Ответить на тему

Текущее время: Сегодня 22:53

Часовой пояс: GMT + 3



Вы не можете начинать темы
Вы не можете отвечать на сообщения
Вы не можете редактировать свои сообщения
Вы не можете удалять свои сообщения
Вы не можете голосовать в опросах
Вы не можете прикреплять файлы к сообщениям
Вы не можете скачивать файлы