Сегодня идет свободное скачивание без начисления Download

Маска Зорро / The Mask of Zorro (Мартин Кэмпбелл / Martin Campbell) [1998 г., Боевик, мелодрама, приключения, BDRip] [AVO] (А.Гаврилов) + [Dub]

Ответить на тему
 
Автор
Сообщение

maxkiller ®

Пол:

Стаж: 3 года 10 месяцев

Сообщений: 282

Торрент-статистика

Пост 27-Янв-2014 23:21

[Цитировать]

Маска Зорро / The Mask of Zorro-
Год выпуска: 1998
Страна: Германия, США
Жанр: Боевик, мелодрама, приключения, вестерн
Продолжительность: 02:17:38
Перевод №1: Авторский (одноголосный) [А.Гаврилов]
Перевод №2: Профессиональный (полное дублирование) Blu-ray CEE
Субтитры: нет-Режиссер: Мартин Кэмпбелл / Martin Campbell-В ролях: Антонио Бандерас (Alejandro Murrieta, Zorro), Энтони Хопкинс (Don Diego de la Vega, Zorro), Кэтрин Зета-Джонс (Elena Montero, Elena Murrieta), Yolanda Orisaga (Woman Crying), Пако Морайта (Undertaker), Уильям Маркес (Fray Felipe), Стюарт Уилсон (Don Rafael Montero), Тони Амендола (Don Luiz), Diego Sieres (Young Joaquín Murrieta), Педро Альтамирано (Squad Leader), Луиза Уэртас (Nanny), Мария Фернандез Круз (Baby Elena de la Vega)-Описание: Стареющий герой, отдавший все силы борьбе за справедливость, проведший десятилетия в темнице, потерявший жену и дочь, передает свои знания, умения и черную маску молодому отчаянному бойцу, который отныне и будет сражаться с теми, кто вершит зло.-
Качество: HDRip
Формат: AVI
Видео-кодек: XviD
Аудио-кодек: AC3
Видео: 720x304 (2.37:1), 23.976 fps, XviD build 50 ~1310 kbps avg, 0.25 bit/pixel
Аудио #1: 48 kHz, AC3 Dolby Digital, 2/0 (L,R) ch, ~192.00 kbps avg [AVO]
Аудио #2: 48 kHz, AC3 Dolby Digital, 2/0 (L,R) ch, ~192.00 kbps avg [DUB]

MI

General
Complete name : E:\INTERNET\The Mask of Zorro.1998.HDRip.[AVO]+[DUB].avi
Format : AVI
Format/Info : Audio Video Interleave
File size : 1.64 GiB
Duration : 2h 17mn
Overall bit rate : 1 708 Kbps
Writing application : VirtualDubMod 1.5.10.3 (build 2550/release)
Writing library : VirtualDubMod build 2550/release
Video
ID : 0
Format : MPEG-4 Visual
Format profile : Advanced [email protected]
Format settings, BVOP : 1
Format settings, QPel : No
Format settings, GMC : No warppoints
Format settings, Matrix : Custom
Codec ID : XVID
Codec ID/Hint : XviD
Duration : 2h 17mn
Bit rate : 1 310 Kbps
Width : 720 pixels
Height : 304 pixels
Display aspect ratio : 2.35:1
Frame rate : 23.976 fps
Color space : YUV
Chroma subsampling : 4:2:0
Bit depth : 8 bits
Scan type : Progressive
Compression mode : Lossy
Bits/(Pixel*Frame) : 0.250
Stream size : 1.26 GiB (77%)
Writing library : XviD 1.2.1 (UTC 2008-12-04)
Audio #1
ID : 1
Format : AC-3
Format/Info : Audio Coding 3
Mode extension : CM (complete main)
Codec ID : 2000
Duration : 2h 17mn
Bit rate mode : Constant
Bit rate : 192 Kbps
Channel(s) : 2 channels
Channel positions : Front: L R
Sampling rate : 48.0 KHz
Bit depth : 16 bits
Compression mode : Lossy
Stream size : 189 MiB (11%)
Alignment : Split accross interleaves
Interleave, duration : 42 ms (1.00 video frame)
Interleave, preload duration : 500 ms
Audio #2
ID : 2
Format : AC-3
Format/Info : Audio Coding 3
Mode extension : CM (complete main)
Codec ID : 2000
Duration : 2h 17mn
Bit rate mode : Constant
Bit rate : 192 Kbps
Channel(s) : 2 channels
Channel positions : Front: L R
Sampling rate : 48.0 KHz
Bit depth : 16 bits
Compression mode : Lossy
Stream size : 189 MiB (11%)
Alignment : Split accross interleaves
Interleave, duration : 42 ms (1.00 video frame)
Interleave, preload duration : 500 ms

Скриншоты


-
Вне форума [Профиль] [ЛС]
Показать сообщения:    
Ответить на тему

Текущее время: Сегодня 16:41

Часовой пояс: GMT + 3



Вы не можете начинать темы
Вы не можете отвечать на сообщения
Вы не можете редактировать свои сообщения
Вы не можете удалять свои сообщения
Вы не можете голосовать в опросах
Вы не можете прикреплять файлы к сообщениям
Вы не можете скачивать файлы