Сегодня идет свободное скачивание без начисления Download

Свидание вслепую / Blind Date (Блэйк Эдвардс)[1987.,Комедия, Мелодрама] BDRip [H.264/720p-LQ] [Hi10P]

Ответить на тему
 
Автор
Сообщение

sashau ®

Пол:

Стаж: 4 года 11 месяцев

Сообщений: 3785

Торрент-статистика

Пост 31-Янв-2014 13:49

[Цитировать]

Свидание вслепую / Blind Date - Год выпуска: 1987
Жанр: Комедия, Мелодрама
Описание фильма: Уолтер Дэвис – трудоголик, и вполне естественно, что все свое внимание он уделяет работе, а не личной жизни или внешности. Для очень важной деловой встречи в ресторане с новым партнером из Японии, Уолтеру потребовалась спутница. Его брат посоветовал взять с собой очаровательную Надю, кузину его жены. Но есть одно но: Наде нельзя пить… совсем! К сожалению, это предупреждение Уолтер пропустил мимо ушей, и потерял в этот роковой для него вечер то немногое, что у него есть: службу, машину, а отчасти и здоровье. Но взамен приобрел нечно очень редкое - себя! И - любовь очаровательной девушки впридачу...
Режиссер: Блэйк Эдвардс
Актеры: Ким Бейсингер, Брюс Уиллис, Джон Ларрокетт, Уильям Дэниелс, Джордж Коу, Марк Блум, Фил Хартмен, Стефани Фэраси, Элис Херсон, Грэм Старк, Джойс Ван Паттен, Джинни Илайас, Херб Тэнни, Джорганн Джонсон, Саб Симоно, Момо Ясима, Армин Шимерман, Брайан Джордж, Эрнест Харада, Эмма Уолтон, Илэйн Уилкс, Сьюзэн Лентини, Бэрри Собель, Арлин Лорр, Тимоти Стэк, Джек Гвиллим, Диана Беллами, Сет Ислер, Пол Карафотс, Боб Эри, Дон Спаркс, Билл Маркус, Майк Дженовезе, Джон Деми, Джон Смет, Джулия Дженнингс, Дик Дурок
Качество видео: BDRip
Продолжительность: 01:35:13
Перевод: Профессиональный (дублированный), Профессиональный (многоголосый, закадровый)x2, Авторский (одноголосый, закадровый)x2
Оригинальная аудио дорожка: Английская
Язык субтитров: Русский, Английский
Вид субтитров: Вшитые

Основной файл весит 1,39гб с одной звуковой дорожкой!
Формат: MKV
Видео: MPEG-4 AVC/H.264, 1280x536(2,40:1), 23.976fps, 1871 Кbps, 0.114bit/pixel
Аудио 1: DUB Russian, AC3, 2ch, 48 kHz, 192 kbps, (Дубляж)
Аудио 2: MVO Russian, AC3, 6ch, 48 kHz, 448 kbps, (Многоголосый - R5) - Отдельным файлом
Аудио 3: MVO Russian, AC3, 2ch, 48 kHz, 192 kbps, (Многоголосый - НТВ+) - Отдельным файлом
Аудио 4: AVO Russian, AC3, 2ch, 48 kHz, 192 kbps, (Одноголосый - Михалев) - Отдельным файлом
Аудио 5: AVO Russian, AC3, 2ch, 48 kHz, 192 kbps, (Одноголосый - Либергал) - Отдельным файлом
Аудио 6: MVO Ukrainian, AC3, 2ch, 48 kHz, 192 kbps, (Многоголосый - Так треба Продакшн) - Отдельным файлом
Аудио 7: English, AC3, 2ch, 48 kHz, 192 kbps, (Оригинал) - Отдельным файлом

MediaInfo

Общее
Полное имя : Свидание вслепую (1987) BDRip-AVC.mkv
Формат : Matroska
Версия формата : Version 4 / Version 2
Размер файла : 2,34 Гбайт
Продолжительность : 1 ч. 35 м.
Общий поток : 3515 Кбит/сек
Название фильма : Свидание вслепую / Blind Date (1987) BDRip-AVC (Sinteros)
Программа кодирования : mkvmerge v6.6.0 ('The Edge Of The In Between') built on Dec 1 2013 17:55:00
Библиотека кодирования : libebml v1.3.0 + libmatroska v1.4.1
Attachment : Yes
Видео
Идентификатор : 1
Формат : AVC
Формат/Информация : Advanced Video Codec
Профиль формата : High [url=mailto:[email protected]][email protected][/url]
Параметр CABAC формата : Да
Параметр ReFrames формата : 11 кадров
Идентификатор кодека : V_MPEG4/ISO/AVC
Продолжительность : 1 ч. 35 м.
Битрейт : 1871 Кбит/сек
Ширина : 1280 пикселей
Высота : 536 пикселей
Соотношение сторон : 2,40:1
Режим частоты кадров : Постоянный
Частота кадров : 23,976 кадра/сек
Цветовое пространство : YUV
Субдискретизация насыщенности : 4:2:0
Битовая глубина : 10 бит
Тип развёртки : Прогрессивная
Бит/(Пиксели*Кадры) : 0.114
Размер потока : 1,23 Гбайт (52%)
Заголовок : MPEG-4 AVC/H.264, 1280x536(2,40:1), 23.976fps, 1871 Кbps, 0.114bit/pixel
Библиотека кодирования : x264 core 133 r2334 a3ac64b
Настройки программы : cabac=1 / ref=11 / deblock=1:-1:-1 / analyse=0x3:0x133 / me=tesa / subme=10 / psy=1 / psy_rd=1.00:0.15 / mixed_ref=1 / me_range=24 / chroma_me=1 / trellis=2 / 8x8dct=1 / cqm=0 / deadzone=21,11 / fast_pskip=1 / chroma_qp_offset=-3 / threads=12 / lookahead_threads=1 / sliced_threads=0 / nr=0 / decimate=1 / interlaced=0 / bluray_compat=0 / constrained_intra=0 / bframes=6 / b_pyramid=2 / b_adapt=2 / b_bias=0 / direct=1 / weightb=1 / open_gop=0 / weightp=2 / keyint=250 / keyint_min=23 / scenecut=40 / intra_refresh=0 / rc_lookahead=60 / rc=crf / mbtree=1 / crf=19.0 / qcomp=0.60 / qpmin=0 / qpmax=81 / qpstep=4 / ip_ratio=1.40 / aq=1:1.00
Язык : English
Default : Да
Forced : Нет
Аудио #1
Идентификатор : 2
Формат : AC-3
Формат/Информация : Audio Coding 3
Профиль формата : Dolby Digital
Расширение режима : CM (complete main)
Параметр Endianness формата : Big
Идентификатор кодека : A_AC3
Продолжительность : 1 ч. 35 м.
Вид битрейта : Постоянный
Битрейт : 192 Кбит/сек
Каналы : 2 канала
Расположение каналов : Front: L R
Частота : 48,0 КГц
Битовая глубина : 16 бит
Метод сжатия : С потерями
Размер потока : 131 Мбайт (5%)
Заголовок : DUB Russian, AC3, 2ch, 48 kHz, 192 kbps, (Дубляж)
Язык : Russian
Default : Да
Forced : Нет
Аудио #2 - Отдельным файлом
Идентификатор : 3
Формат : AC-3
Формат/Информация : Audio Coding 3
Расширение режима : CM (complete main)
Параметр Endianness формата : Big
Идентификатор кодека : A_AC3
Продолжительность : 1 ч. 35 м.
Вид битрейта : Постоянный
Битрейт : 448 Кбит/сек
Каналы : 6 каналов
Расположение каналов : Front: L C R, Side: L R, LFE
Частота : 48,0 КГц
Битовая глубина : 16 бит
Метод сжатия : С потерями
Размер потока : 305 Мбайт (13%)
Заголовок : MVO Russian, AC3, 6ch, 48 kHz, 448 kbps, (Многоголосый - R5) - Отдельным файлом
Язык : Russian
Default : Нет
Forced : Нет
Аудио #3 - Отдельным файлом
Идентификатор : 4
Формат : AC-3
Формат/Информация : Audio Coding 3
Профиль формата : Dolby Digital
Расширение режима : CM (complete main)
Параметр Endianness формата : Big
Идентификатор кодека : A_AC3
Продолжительность : 1 ч. 35 м.
Вид битрейта : Постоянный
Битрейт : 192 Кбит/сек
Каналы : 2 канала
Расположение каналов : Front: L R
Частота : 48,0 КГц
Битовая глубина : 16 бит
Метод сжатия : С потерями
Размер потока : 131 Мбайт (5%)
Заголовок : MVO Russian, AC3, 2ch, 48 kHz, 192 kbps, (Многоголосый - НТВ+) - Отдельным файлом
Язык : Russian
Default : Нет
Forced : Нет
Аудио #4 - Отдельным файлом
Идентификатор : 5
Формат : AC-3
Формат/Информация : Audio Coding 3
Профиль формата : Dolby Digital
Расширение режима : CM (complete main)
Параметр Endianness формата : Big
Идентификатор кодека : A_AC3
Продолжительность : 1 ч. 35 м.
Вид битрейта : Постоянный
Битрейт : 192 Кбит/сек
Каналы : 2 канала
Расположение каналов : Front: L R
Частота : 48,0 КГц
Битовая глубина : 16 бит
Метод сжатия : С потерями
Размер потока : 131 Мбайт (5%)
Заголовок : AVO Russian, AC3, 2ch, 48 kHz, 192 kbps, (Одноголосый - Михалев) - Отдельным файлом
Язык : Russian
Default : Нет
Forced : Нет
Аудио #5 - Отдельным файлом
Идентификатор : 6
Формат : AC-3
Формат/Информация : Audio Coding 3
Профиль формата : Dolby Digital
Расширение режима : CM (complete main)
Параметр Endianness формата : Big
Идентификатор кодека : A_AC3
Продолжительность : 1 ч. 35 м.
Вид битрейта : Постоянный
Битрейт : 192 Кбит/сек
Каналы : 2 канала
Расположение каналов : Front: L R
Частота : 48,0 КГц
Битовая глубина : 16 бит
Метод сжатия : С потерями
Размер потока : 131 Мбайт (5%)
Заголовок : AVO Russian, AC3, 2ch, 48 kHz, 192 kbps, (Одноголосый - Либергал) - Отдельным файлом
Язык : Russian
Default : Нет
Forced : Нет
Аудио #6 - Отдельным файлом
Идентификатор : 7
Формат : AC-3
Формат/Информация : Audio Coding 3
Профиль формата : Dolby Digital
Расширение режима : CM (complete main)
Параметр Endianness формата : Big
Идентификатор кодека : A_AC3
Продолжительность : 1 ч. 35 м.
Вид битрейта : Постоянный
Битрейт : 192 Кбит/сек
Каналы : 2 канала
Расположение каналов : Front: L R
Частота : 48,0 КГц
Битовая глубина : 16 бит
Метод сжатия : С потерями
Размер потока : 131 Мбайт (5%)
Заголовок : MVO Ukrainian, AC3, 2ch, 48 kHz, 192 kbps, (Многоголосый - Так треба Продакшн) - Отдельным файлом
Язык : Ukrainian
Default : Нет
Forced : Нет
Аудио #7 - Отдельным файлом
Идентификатор : 8
Формат : AC-3
Формат/Информация : Audio Coding 3
Расширение режима : CM (complete main)
Параметр Endianness формата : Big
Идентификатор кодека : A_AC3
Продолжительность : 1 ч. 35 м.
Вид битрейта : Постоянный
Битрейт : 192 Кбит/сек
Каналы : 2 канала
Расположение каналов : Front: L R
Частота : 48,0 КГц
Битовая глубина : 16 бит
Метод сжатия : С потерями
Размер потока : 131 Мбайт (5%)
Заголовок : English, AC3, 2ch, 48 kHz, 192 kbps, (Оригинал) - Отдельным файлом
Язык : English
Default : Нет
Forced : Нет
Текст #1
Идентификатор : 9
Формат : PGS
Режим смешивания : zlib
Идентификатор кодека : S_HDMV/PGS
Идентификатор кодека/Информация : The same subtitle format used on BDs/HD-DVDs
Язык : Russian
Default : Нет
Forced : Нет
Текст #2
Идентификатор : 10
Формат : PGS
Режим смешивания : zlib
Идентификатор кодека : S_HDMV/PGS
Идентификатор кодека/Информация : The same subtitle format used on BDs/HD-DVDs
Язык : English
Default : Нет
Forced : Нет
Меню
00:00:00.000 : en:
00:05:28.703 : en:
00:10:19.952 : en:
00:13:53.624 : en:
00:18:20.349 : en:
00:23:03.632 : en:
00:27:42.369 : en:
00:32:51.344 : en:
00:37:31.290 : en:
00:44:16.070 : en:
00:51:33.006 : en:
00:56:34.891 : en:
01:03:47.573 : en:
01:10:32.353 : en:
01:22:26.483 : en:
01:30:58.327 : en:
01:35:13.457 : en:
Примечание: Рип в High 10 Profile, в настоящее время не поддерживается большинством аппаратных проигрывателей, поэтому предназначен исключительно для воспроизведения на ПК.
Для корректного воспроизведения может потребоваться обновление ПО.
Скриншоты:                    
Вне форума [Профиль] [ЛС]
Показать сообщения:    
Ответить на тему

Текущее время: Сегодня 17:21

Часовой пояс: GMT + 3



Вы не можете начинать темы
Вы не можете отвечать на сообщения
Вы не можете редактировать свои сообщения
Вы не можете удалять свои сообщения
Вы не можете голосовать в опросах
Вы не можете прикреплять файлы к сообщениям
Вы не можете скачивать файлы