Сегодня идет свободное скачивание без начисления Download

Игрушка / Le jouet (Франсис Вебер)[1976.,Комедия] BDRip [H.264/720p-LQ] [Hi10P]

Ответить на тему
 
Автор
Сообщение

sashau ®

Пол:

Стаж: 4 года 11 месяцев

Сообщений: 3785

Торрент-статистика

Пост 02-Фев-2014 14:16

[Цитировать]

Игрушка / Le jouet - Год выпуска: 1976
Жанр: Комедия
Описание фильма: Стать игрушкой для малолетнего миллионера - ситуация не для слабонервных. Герой Пьера Ришара отлично справляется с ролью ужасного ребенка и, вместе с подопечным, отрывается на полную катушку.
Остановить «детский беспредел» оказывается не так просто. Особенно если учесть, что Франсуа Перрен стал для ребенка единственным по-настоящему любимым человеком...
Режиссер: Франсис Вебер
Актеры: Пьер Ришар, Мишель Буке, Фабрис Греко, Жак Франсуа, Даниэль Секкальди, Шарль Жерар, Мишель Омон, Сьюзи Дайсон, Жерар Жюньо, Мишель Робен
Качество видео: BDRip
Продолжительность: 01:33:53
Перевод: Профессиональный (дублированный), Профессиональный (многоголосый закадровый), Профессиональный (двухголосый закадровый)
Оригинальная аудио дорожка: Французская
Язык субтитров: Русский, Французский
Вид субтитров: Вшитые

Формат: MKV
Видео: MPEG-4 AVC/H.264, 1280x768(1,667), 23.976fps, 2471 Кbps, 0.105bit/pixel
Аудио 1: DUB Russian, AC3, 2ch, 48 kHz, 192 kbps, (Советский дубляж)
Аудио 2: MVO Russian, AC3, 6ch, 48 kHz, 448 kbps, (Многоголосый - CP-Digital) - Отдельным файлом
Аудио 3: MVO Russian, AC3, 2ch, 48 kHz, 192 kbps, (Многоголосый - ОРТ) - Отдельным файлом
Аудио 4: DVO Russian, AC3, 2ch, 48 kHz, 192 kbps, (Двухголосый - Рен-ТВ/ТВЦ) - Отдельным файлом
Аудио 7: French, AC3, 6ch, 48 kHz, 448 kbps, (Оригинал) - Отдельным файлом

MediaInfo

Общее
Полное имя : Игрушка (1976) BDRip-AVC.mkv
Формат : Matroska
Версия формата : Version 4 / Version 2
Размер файла : 2,45 Гбайт
Продолжительность : 1 ч. 33 м.
Общий поток : 3740 Кбит/сек
Название фильма : Игрушка / Le jouet (1976) BDRip-AVC (Sinteros)
Программа кодирования : mkvmerge v6.6.0 ('The Edge Of The In Between') built on Dec 1 2013 17:55:00
Библиотека кодирования : libebml v1.3.0 + libmatroska v1.4.1
Attachment : Yes
Видео
Идентификатор : 1
Формат : AVC
Формат/Информация : Advanced Video Codec
Профиль формата : High [url=mailto:[email protected]][email protected][/url]
Параметр CABAC формата : Да
Параметр ReFrames формата : 11 кадров
Идентификатор кодека : V_MPEG4/ISO/AVC
Продолжительность : 1 ч. 33 м.
Битрейт : 2450 Кбит/сек
Ширина : 1280 пикселей
Высота : 768 пикселей
Соотношение сторон : 1,667
Режим частоты кадров : Постоянный
Частота кадров : 23,976 кадра/сек
Цветовое пространство : YUV
Субдискретизация насыщенности : 4:2:0
Битовая глубина : 10 бит
Тип развёртки : Прогрессивная
Бит/(Пиксели*Кадры) : 0.104
Размер потока : 1,61 Гбайт (65%)
Заголовок : MPEG-4 AVC/H.264, 1280x768(1,667), 23.976fps, 2471 Кbps, 0.105bit/pixel
Библиотека кодирования : x264 core 133 r2334 a3ac64b
Настройки программы : cabac=1 / ref=11 / deblock=1:-1:-1 / analyse=0x3:0x133 / me=tesa / subme=10 / psy=1 / psy_rd=1.00:0.15 / mixed_ref=1 / me_range=24 / chroma_me=1 / trellis=2 / 8x8dct=1 / cqm=0 / deadzone=21,11 / fast_pskip=1 / chroma_qp_offset=-3 / threads=12 / lookahead_threads=1 / sliced_threads=0 / nr=0 / decimate=1 / interlaced=0 / bluray_compat=0 / constrained_intra=0 / bframes=6 / b_pyramid=2 / b_adapt=2 / b_bias=0 / direct=1 / weightb=1 / open_gop=0 / weightp=2 / keyint=250 / keyint_min=23 / scenecut=40 / intra_refresh=0 / rc_lookahead=60 / rc=crf / mbtree=1 / crf=20.0 / qcomp=0.60 / qpmin=0 / qpmax=81 / qpstep=4 / ip_ratio=1.40 / aq=1:1.00
Язык : English
Default : Да
Forced : Нет
Аудио #1
Идентификатор : 2
Формат : AC-3
Формат/Информация : Audio Coding 3
Расширение режима : CM (complete main)
Параметр Endianness формата : Big
Идентификатор кодека : A_AC3
Продолжительность : 1 ч. 33 м.
Вид битрейта : Постоянный
Битрейт : 192 Кбит/сек
Каналы : 2 канала
Расположение каналов : Front: L R
Частота : 48,0 КГц
Битовая глубина : 16 бит
Метод сжатия : С потерями
Размер потока : 129 Мбайт (5%)
Заголовок : DUB Russian, AC3, 2ch, 48 kHz, 192 kbps, (Советский дубляж)
Язык : Russian
Default : Нет
Forced : Нет
Аудио #2 - Отдельным файлом
Идентификатор : 3
Формат : AC-3
Формат/Информация : Audio Coding 3
Расширение режима : CM (complete main)
Параметр Endianness формата : Big
Идентификатор кодека : A_AC3
Продолжительность : 1 ч. 33 м.
Вид битрейта : Постоянный
Битрейт : 448 Кбит/сек
Каналы : 6 каналов
Расположение каналов : Front: L C R, Side: L R, LFE
Частота : 48,0 КГц
Битовая глубина : 16 бит
Метод сжатия : С потерями
Размер потока : 301 Мбайт (12%)
Заголовок : MVO Russian, AC3, 6ch, 48 kHz, 448 kbps, (Многоголосый - CP-Digital) - Отдельным файлом
Язык : Russian
Default : Нет
Forced : Нет
Аудио #3 - Отдельным файлом
Идентификатор : 4
Формат : AC-3
Формат/Информация : Audio Coding 3
Расширение режима : CM (complete main)
Параметр Endianness формата : Big
Идентификатор кодека : A_AC3
Продолжительность : 1 ч. 33 м.
Вид битрейта : Постоянный
Битрейт : 192 Кбит/сек
Каналы : 2 канала
Расположение каналов : Front: L R
Частота : 48,0 КГц
Битовая глубина : 16 бит
Метод сжатия : С потерями
Размер потока : 129 Мбайт (5%)
Заголовок : MVO Russian, AC3, 2ch, 48 kHz, 192 kbps, (Многоголосый - ОРТ) - Отдельным файлом
Язык : Russian
Default : Нет
Forced : Нет
Аудио #4 - Отдельным файлом
Идентификатор : 5
Формат : AC-3
Формат/Информация : Audio Coding 3
Расширение режима : CM (complete main)
Параметр Endianness формата : Big
Идентификатор кодека : A_AC3
Продолжительность : 1 ч. 33 м.
Вид битрейта : Постоянный
Битрейт : 192 Кбит/сек
Каналы : 2 канала
Расположение каналов : Front: L R
Частота : 48,0 КГц
Битовая глубина : 16 бит
Метод сжатия : С потерями
Размер потока : 129 Мбайт (5%)
Заголовок : DVO Russian, AC3, 2ch, 48 kHz, 192 kbps, (Двухголосый - Рен-ТВ/ТВЦ) - Отдельным файлом
Язык : Russian
Default : Нет
Forced : Нет
Аудио #5 - Отдельным файлом
Идентификатор : 6
Формат : AC-3
Формат/Информация : Audio Coding 3
Расширение режима : CM (complete main)
Параметр Endianness формата : Big
Идентификатор кодека : A_AC3
Продолжительность : 1 ч. 33 м.
Вид битрейта : Постоянный
Битрейт : 192 Кбит/сек
Каналы : 2 канала
Расположение каналов : Front: L R
Частота : 48,0 КГц
Битовая глубина : 16 бит
Метод сжатия : С потерями
Размер потока : 129 Мбайт (5%)
Заголовок : French, AC3, 6ch, 48 kHz, 448 kbps, (Оригинал) - Отдельным файлом
Язык : French
Default : Нет
Forced : Нет
Текст #1
Идентификатор : 7
Формат : PGS
Режим смешивания : zlib
Идентификатор кодека : S_HDMV/PGS
Идентификатор кодека/Информация : The same subtitle format used on BDs/HD-DVDs
Язык : Russian
Default : Нет
Forced : Нет
Текст #2
Идентификатор : 8
Формат : PGS
Режим смешивания : zlib
Идентификатор кодека : S_HDMV/PGS
Идентификатор кодека/Информация : The same subtitle format used on BDs/HD-DVDs
Язык : French
Default : Нет
Forced : Нет
Меню
00:00:00.000 : en:1
00:05:01.926 : en:2
00:10:25.791 : en:3
00:15:03.861 : en:4
00:23:10.806 : en:5
00:30:06.179 : en:6
00:35:06.729 : en:7
00:43:40.826 : en:8
00:48:41.585 : en:9
00:54:45.323 : en:10
00:59:22.308 : en:11
01:08:46.330 : en:12
01:15:54.091 : en:13
01:21:45.358 : en:14
01:26:32.520 : en:15
01:32:03.643 : en:16
01:33:53.753 : en:
Скриншоты:                    
Вне форума [Профиль] [ЛС]
Показать сообщения:    
Ответить на тему

Текущее время: Сегодня 05:11

Часовой пояс: GMT + 3



Вы не можете начинать темы
Вы не можете отвечать на сообщения
Вы не можете редактировать свои сообщения
Вы не можете удалять свои сообщения
Вы не можете голосовать в опросах
Вы не можете прикреплять файлы к сообщениям
Вы не можете скачивать файлы