Сегодня идет свободное скачивание без начисления Download

Робокоп / RoboCop (Пол Верховен)[1987.,фантастика, боевик, криминал] BDRip [Director's Cut]

Ответить на тему
 
Автор
Сообщение

sashau ®

Пол:

Стаж: 4 года 11 месяцев

Сообщений: 3785

Торрент-статистика

Пост 02-Фев-2014 19:55

[Цитировать]

Робокоп / RoboCop- Год выпуска: 1987
Производство: США
Жанр: фантастика, боевик, криминал
Перевод: Профессиональный многоголосый закадровый + Оригинал
Субтитры: Отдельным файлом
Язык субтитров: Русский-Релиз группы: R.G. Shadoof
Автор рипа : What You Gonna Do ?
-Режиссер: Пол Верховен
Актеры: Питер Уэллер, Нэнси Аллен, Дэн О’Херлихи, Ронни Кокс, Кертвуд Смит, Мигель Феррер, Роберт Дукуй, Рэй Уайз, Фелтон Перри, Пол МакКрейн- -Описание фильма: После гибели одного из лучших полицейских врачи-экспериментаторы создают из него неуязвимого киборга Робокопа, который в одиночку борется с бандой преступников. Однако прочная броня не спасает Робокопа от мучительных, обрывочных воспоминаний о прошлом: он постоянно видит кошмарные сны, в которых погибает от рук жестоких преступников. Теперь он не только ждёт правосудия, но и жаждет мести.-Продолжительность: 01:43:14
Качество видео: BDRip
Видеокодек: XviD
Битрейт видео: ~2250 kbps
Размер кадра: 704x384
Аудио: Русский; 48 kHz, AC3 Dolby Digital, 3/2 (L,C,R,l,r) + LFE ch, ~384 kbps
Аудио: Английский; 48 kHz, AC3 Dolby Digital, 3/2 (L,C,R,l,r) + LFE ch, ~384 kbps
-

MediaInfo

Код:
Формат                                   : AVI
Формат/Информация                        : Audio Video Interleave
Профиль формата                          : OpenDML
Размер файла                             : 2,18 Гбайт
Продолжительность                        : 1 ч. 43 м.
Общий поток                              : 3025 Кбит/сек
Название фильма                          : RoboCop..1987.BDRip.XviD.AC3.Rus.Eng.~R.G.Shadoof
Режиссёр                                 : What You Gonna Do?
Программа кодирования                    : VirtualDubMod 1.5.10.2 (build 2540/release)
Правообладатель                          : R.G. Shadoof
Примечание                               : 27.11.2013
Видео
Идентификатор                            : 0
Формат                                   : MPEG-4 Visual
Профиль формата                          : Advanced [email protected]
Параметр BVOP формата                    : 1
Параметр QPel формата                    : Нет
Параметр GMC формата                     : Без точки перехода
Параметр матрицы формата                 : Выборочная
Идентификатор кодека                     : XVID
Идентификатор кодека/Подсказка           : XviD
Продолжительность                        : 1 ч. 43 м.
Битрейт                                  : 2240 Кбит/сек
Ширина                                   : 704 пикселя
Высота                                   : 384 пикселя
Соотношение сторон                       : 1,85:1
Частота кадров                           : 23,976 кадра/сек
Цветовое пространство                    : YUV
Субдискретизация насыщенности            : 4:2:0
Битовая глубина                          : 8 бит
Тип развёртки                            : Прогрессивная
Метод сжатия                             : С потерями
Бит/(Пиксели*Кадры)                      : 0.346
Размер потока                            : 1,62 Гбайт (74%)
Библиотека кодирования                   : XviD 64
Аудио #1
Идентификатор                            : 1
Формат                                   : AC-3
Формат/Информация                        : Audio Coding 3
Расширение режима                        : CM (complete main)
Параметр Endianness формата              : Big
Идентификатор кодека                     : 2000
Продолжительность                        : 1 ч. 43 м.
Вид битрейта                             : Постоянный
Битрейт                                  : 384 Кбит/сек
Каналы                                   : 6 каналов
Расположение каналов                     : Front: L C R, Side: L R, LFE
Частота                                  : 48,0 КГц
Битовая глубина                          : 16 бит
Метод сжатия                             : С потерями
Размер потока                            : 284 Мбайт (13%)
Выравнивание                             : Разделение по промежуткам
Продолжительность промежутка             : 42  мс. (1,00 видеокадр)
Время предзагрузки промежутка            : 500  мс.
Аудио #2
Идентификатор                            : 2
Формат                                   : AC-3
Формат/Информация                        : Audio Coding 3
Расширение режима                        : CM (complete main)
Параметр Endianness формата              : Big
Идентификатор кодека                     : 2000
Продолжительность                        : 1 ч. 43 м.
Вид битрейта                             : Постоянный
Битрейт                                  : 384 Кбит/сек
Каналы                                   : 6 каналов
Расположение каналов                     : Front: L C R, Side: L R, LFE
Частота                                  : 48,0 КГц
Битовая глубина                          : 16 бит
Метод сжатия                             : С потерями
Размер потока                            : 284 Мбайт (13%)
Выравнивание                             : Разделение по промежуткам
Продолжительность промежутка             : 42  мс. (1,00 видеокадр)
Время предзагрузки промежутка            : 500  мс.
-        
     
- --
Вне форума [Профиль] [ЛС]
Похожие темы
Форум Тема Автор Торрент Отв. Посл. сообщение
./templates/default/images/folder_dl.gif Мультсериалы Робокар Поли и его друзья / Robocar Poli ( Lee Dong-woo)[2011-2014.,Детский, Анимационный] WEB-DLRip, SATRip (1-3 сезоны, серии 1-78 из 78 + 26) sashau
2 | 0

0 | 780

22

2014-12-23 15:59
sashau Последнее
Показать сообщения:    
Ответить на тему

Текущее время: Сегодня 20:59

Часовой пояс: GMT + 3



Вы не можете начинать темы
Вы не можете отвечать на сообщения
Вы не можете редактировать свои сообщения
Вы не можете удалять свои сообщения
Вы не можете голосовать в опросах
Вы не можете прикреплять файлы к сообщениям
Вы не можете скачивать файлы