Сегодня идет свободное скачивание без начисления Download

Беглецы / Les fugitifs (Франсис Вебер)[1986.,Комедия, Криминал] BDRip [H.264]

Ответить на тему
 
Автор
Сообщение

sashau ®

Пол:

Стаж: 4 года 11 месяцев

Сообщений: 3785

Торрент-статистика

Пост 02-Фев-2014 20:14

[Цитировать]

Беглецы / Les fugitifs -«The oddest 'odd couple' from 'Les Comperes' are back in a gag-filled comic masterpiece of role reversal and farcical misadventure»- Год выпуска: 1986
Жанр: Комедия, Криминал
Производство: Франция / DD Productions, EFVE, Fideline Films, Orly Films
Описание фильма:
Нескладный грабитель банка захватывает в заложники бывшего «крутого» заключенного. Полиция бросается за ними в погоню, герои меняются ролями. «Заложник» становится нянькой «похитителя» и «отцом» его немой дочери. Теперь «крутой», который сидел за 14 ограблений банков твердо решил «завязать».
Он помогает странной семейке скрываться от полиции, навлекая на себя массу новых проблем. Но, в награду ему будет атмосфера семейной любви, о чем он не имел понятия, и даже маленькое чудо, произошедшее с немой девочкой…
Режиссер: Франсис Вебер
Сценарий: Франсис Вебер
Продюсер: Жан-Жозе Рише
Композитор: Владимир Косма
Актеры: Пьер Ришар, Жерар Депардье, Жан Карме, Морис Барье, Жан Бенгиги, Ролан Бланш, Анаис Бре, Филипп Лельевр, Ивелин Айо, Дидье Пэн
Продолжительность: 01:29:11
Качество видео: BDRip
Перевод: Дублированный, многоголосый закадровый

Дата мировой премьеры: 17 декабря 1986
Дата выхода DVD релиза: 18 декабря 2008, «Союз-Видео»
Видеокодек: MPEG-4 AVC/H.264
Битрейт видео: ~2424 Кбит/сек
Размер кадра: 1024x576
Аудио 1: Русский, AC3 2.0, 192 Кбит/сек, 48 kHz (Советский дубляж)
Аудио 2: Русский, AC3 2.0, 192 Кбит/сек, 48 kHz (Многоголосый закадровый, ОРТ)

Реценция с кинопоиска, Боб:

Один из моих самых любимых фильмов! Обожаю его. Преклоняюсь перед Франсисом Вебером, Пьером Ришаром и Жераром Депардье, которые смогли вместе сделать такой шедевр на все времена — французское кино всегда привлекало меня больше любого другого, но только два фильма вызывали и продолжают вызывать у меня такую волну чувств, эмоций и переживаний — это «Игрушка» и «Беглецы» — два самых лучших фильма Вебера и одновременно два самых главных и значимых фильма Ришара.
В «Беглецах» великолепно все! Это убийственно смешная комедия, некоторые сцены которой заставляют смеяться до слез, но ей не чужды и слезы грусти. Это тонкий, прочувствованный и сентиментальный фильм, гимн дружбе и отцовской любви. Кроме этого, через весь фильм проходит тоненькая струнка социального подтекста — не лишен фильм и духа сатиры, неприятия окружающего мира, и типичных черточек боевика. Соединить все это вместе в таких изумительных пропорциях мог только настоящий гений, любящий людей и кино, как своих детей.
Два антипода — Пьер Ришар и Жерар Депардье благодаря трем фильмам Вебера стали мифической парой, лучшим комическим дуэтом Европы 80-х. Такие разные, но такие близкие. Во всех фильмах их объединяет любовь — будь то любовь к девушке в «Невезучих», любовь к подростку-сыну в «Папашах» или любовь к дочке, как в «Беглецах». От этого фильм становится еще добрее, светлее и чище, что еще выше поднимает его над мейнстримом. Этот фильм даже над французскими комедиями парит!
Отдельно стоит отметить маленькую Анис Брет, сыгравшую так трогательно и непосредственно, что просто диву даешься — а ведь это ее первая и последняя роль.
Этот фильм — вот уже более 20 лет — одна из вершин французского киноискусства. Может, я немного преувеличиваю его значение, но ведь правда, сколько лент выдержало испытание временем и остались такими же свежими, как в год выхода? Ведь совсем не много. А «Беглецы» держали и держат испытание временем с честью!

Награды:

Сезар, 1987 год
Номинации (2):
Лучший актер второго плана (Жан Карме)
Лучший адаптированный или оригинальный сценарий

MediaInfo:

General
Unique ID : 196623795141331393865237174117506635898 (0x93EC5D905EF38774A5FA7B3B7F6A587A)
Complete name : F:\Downloads\Беглецы.mkv
Format : Matroska
Format version : Version 4 / Version 2
File size : 1.75 GiB
Duration : 1h 29mn
Overall bit rate : 2 810 Kbps
Encoded date : UTC 2014-02-01 06:37:47
Writing application : mkvmerge v6.4.1 ('Omega Point') built on Sep 16 2013 22:05:10
Writing library : libebml v1.3.0 + libmatroska v1.4.1
Video
ID : 1
Format : AVC
Format/Info : Advanced Video Codec
Format profile : [url=mailto:[email protected]][email protected][/url]
Format settings, CABAC : Yes
Format settings, ReFrames : 8 frames
Codec ID : V_MPEG4/ISO/AVC
Duration : 1h 29mn
Bit rate : 2 424 Kbps
Width : 1 024 pixels
Height : 576 pixels
Display aspect ratio : 16:9
Frame rate mode : Constant
Frame rate : 24.000 fps
Color space : YUV
Chroma subsampling : 4:2:0
Bit depth : 8 bits
Scan type : Progressive
Bits/(Pixel*Frame) : 0.171
Stream size : 1.48 GiB (84%)
Title : Les Fugitifs
Writing library : x264 core 130 r2273 b3065e6
Encoding settings : cabac=1 / ref=8 / deblock=1:0:0 / analyse=0x3:0x133 / me=umh / subme=9 / psy=1 / psy_rd=1.00:0.00 / mixed_ref=1 / me_range=32 / chroma_me=1 / trellis=2 / 8x8dct=1 / cqm=0 / deadzone=21,11 / fast_pskip=0 / chroma_qp_offset=-2 / threads=6 / lookahead_threads=1 / sliced_threads=0 / nr=0 / decimate=1 / interlaced=0 / bluray_compat=0 / constrained_intra=0 / bframes=3 / b_pyramid=2 / b_adapt=2 / b_bias=0 / direct=3 / weightb=1 / open_gop=0 / weightp=2 / keyint=250 / keyint_min=25 / scenecut=40 / intra_refresh=0 / rc_lookahead=60 / rc=2pass / mbtree=1 / bitrate=2424 / ratetol=1.0 / qcomp=0.60 / qpmin=10 / qpmax=51 / qpstep=4 / cplxblur=20.0 / qblur=0.5 / ip_ratio=1.40 / aq=1:1.00
Language : French
Default : Yes
Forced : No
Audio #1
ID : 2
Format : AC-3
Format/Info : Audio Coding 3
Mode extension : CM (complete main)
Format settings, Endianness : Big
Codec ID : A_AC3
Duration : 1h 29mn
Bit rate mode : Constant
Bit rate : 192 Kbps
Channel(s) : 2 channels
Channel positions : Front: L R
Sampling rate : 48.0 KHz
Bit depth : 16 bits
Compression mode : Lossy
Stream size : 122 MiB (7%)
Title : Советский дубляж
Language : Russian
Default : Yes
Forced : No
Audio #2
ID : 3
Format : AC-3
Format/Info : Audio Coding 3
Mode extension : CM (complete main)
Format settings, Endianness : Big
Codec ID : A_AC3
Duration : 1h 29mn
Bit rate mode : Constant
Bit rate : 192 Kbps
Channel(s) : 2 channels
Channel positions : Front: L R
Sampling rate : 48.0 KHz
Bit depth : 16 bits
Compression mode : Lossy
Stream size : 122 MiB (7%)
Title : Многоголосый закадровый, ОРТ
Language : Russian
Default : No
Forced : No
Скриншоты:                    
Вне форума [Профиль] [ЛС]
Показать сообщения:    
Ответить на тему

Текущее время: Сегодня 17:31

Часовой пояс: GMT + 3



Вы не можете начинать темы
Вы не можете отвечать на сообщения
Вы не можете редактировать свои сообщения
Вы не можете удалять свои сообщения
Вы не можете голосовать в опросах
Вы не можете прикреплять файлы к сообщениям
Вы не можете скачивать файлы