Сегодня идет свободное скачивание без начисления Download

Вор / Thief ( Майкл Манн)[1981.,боевик, триллер, драма, криминал] BDRip

Ответить на тему
 
Автор
Сообщение

sashau ®

Пол:

Стаж: 4 года 11 месяцев

Сообщений: 3785

Торрент-статистика

Пост 02-Фев-2014 20:20

[Цитировать]

Вор / Thief -«Сегодня вечером, его ожидает автомобиль у дома, оплата $ 410 000 ... налогами не облагается»- Год выпуска: 1981
Жанр: боевик, триллер, драма, криминал
Описание фильма:
Фрэнк — эксперт по вскрытию сейфов, профессионал высшей пробы, и работы для него всегда хватает. Но он уже побывал за решеткой, и возвращаться туда не собирается. Нужен всего один, но верный взлом.
И тут дразнящая мечта о будущем заставляет его потерять осторожность: поддавшись искушению, матерый волк-одиночка соглашается поработать на крупного мафиози! Капкан захлопнулся, разовых контрактов с мафией не бывает. Лучший друг Фрэнка убит, любимая женщина — в руках бандитов, а сам он становится их собственностью…
Режиссер: Майкл Манн
Актеры: Джеймс Каан, Джеймс Белуши, Тьюсдей Уэлд, Уилли Нельсон, Роберт Проски, Том Синьорелли, Дэннис Фарина, Джон Сантуччи, Гэвин МакФадьен, Чак Адамсон, Уолтер Скотт, Лора Стейли, Хэл Фрэнк, Дел Клоуз, Джон Капелос
Продолжительность: 02:04:41
Качество видео: BDRip
Перевод: Профессиональный (многоголосый закадровый) со вставками Е.Гаевского на непереведённые места

Дата мировой премьеры: 27 марта 1981
Дата выхода DVD релиза: 14 января 2010
Видеокодек: Xvid
Битрейт видео: ~1470 kbps
Размер кадра: 720x384
Аудиокодек: AC3 2.0
Битрейт аудио: 192 kbps, 2ch
&

MI

Общее
Полное имя : D:\Рипы\Thief.1981.BDRip.avi
Формат : AVI
Формат/Информация : Audio Video Interleave
Размер файла : 1,46 Гбайт
Продолжительность : 2 ч. 4 м.
Общий поток : 1672 Кбит/сек
Название фильма : Thief.1981.BDRip
Режиссёр : rip by maygli
Программа кодирования : VirtualDubModRus 1.5.10.2 (build 2542/release)
Правообладатель : ... (RG Rulya74)
Видео
Идентификатор : 0
Формат : MPEG-4 Visual
Профиль формата : Advanced [email protected]
Параметр BVOP формата : 1
Параметр QPel формата : Нет
Параметр GMC формата : Без точки перехода
Параметр матрицы формата : Выборочная
Идентификатор кодека : XVID
Идентификатор кодека/Подсказка : XviD
Продолжительность : 2 ч. 4 м.
Битрейт : 1470 Кбит/сек
Ширина : 720 пикселей
Высота : 384 пикселя
Соотношение сторон : 1,85:1
Частота кадров : 23,976 кадра/сек
Цветовое пространство : YUV
Субдискретизация насыщенности : 4:2:0
Битовая глубина : 8 бит
Тип развёртки : Прогрессивная
Метод сжатия : С потерями
Бит/(Пиксели*Кадры) : 0.222
Размер потока : 1,28 Гбайт (88%)
Библиотека кодирования : XviD 65
Аудио
Идентификатор : 1
Формат : AC-3
Формат/Информация : Audio Coding 3
Расширение режима : CM (complete main)
Параметр Endianness формата : Big
Идентификатор кодека : 2000
Продолжительность : 2 ч. 4 м.
Вид битрейта : Постоянный
Битрейт : 192 Кбит/сек
Каналы : 2 канала
Расположение каналов : Front: L R
Частота : 48,0 КГц
Битовая глубина : 16 бит
Метод сжатия : С потерями
Размер потока : 171 Мбайт (11%)
Выравнивание : Разделение по промежуткам
Продолжительность промежутка : 42 мс. (1,00 видеокадр)
Время предзагрузки промежутка : 500 мс.
Заголовок : Профессиональный (многоголосый закадровый) со вставками Е.Гаевского на непереведённые места
Скриншоты:
           
Вне форума [Профиль] [ЛС]
Показать сообщения:    
Ответить на тему

Текущее время: Сегодня 01:18

Часовой пояс: GMT + 3



Вы не можете начинать темы
Вы не можете отвечать на сообщения
Вы не можете редактировать свои сообщения
Вы не можете удалять свои сообщения
Вы не можете голосовать в опросах
Вы не можете прикреплять файлы к сообщениям
Вы не можете скачивать файлы