Сегодня идет свободное скачивание без начисления Download

Дуэль в Диабло / Duel at Diablo ( Ральф Нельсон)[1966.,Боевик, Вестерн, Военный] DVDRip [H.264]

Ответить на тему
 
Автор
Сообщение

sashau ®

Пол:

Стаж: 4 года 11 месяцев

Сообщений: 3785

Торрент-статистика

Пост 04-Фев-2014 10:44

[Цитировать]

Дуэль в Диабло / Duel at Diablo -«Afraid to turn their backs on each other they fought side by side against the Indian!»- Год выпуска: 1966
Жанр: Боевик, Вестерн, Военный
Производство: США/ Cherokee Productions, Rainbow Releasing
Описание фильма:
Экранизация романа Марвина Элберта "Восстание апачей".
В основе сюжета поход кавалерийского отряда с новобранцами во главе с лейтенантом (Биллом Трэверсом) в отдаленный форт и нападении на него апачей.
Джеймс Гарнер очень хорош в роли индейского разведчика, который мстит за убийство своей жены. Пуатье также заслуживает высоких оценок за роль отставного армейского сержанта. В фильме столько остросюжетного действия, боевых схваток, что довольны будут даже сегодняшние любители боевиков и вестернов "про индейцев".
Режиссер: Ральф Нельсон
Сценарий: Марвин Х. Альберт, Майкл М. Грилихес
Продюсер: Фред Энджел, Ральф Нельсон
Актеры: Джеймс Гарнер, Сидни Пуатье, Биби Андерссон, Деннис Уивер, Билл Треверс, Уильям Редфилд, Джон Хаббард, Ральф Нельсон, Билл Харт, Джон Хойт
Продолжительность: 01:40:05
Качество видео: DVDRip
Перевод: Двуголосый закадровый (НТВ +)
Субтитры: Отсутствуют

Дата мировой премьеры: 12 мая 1966
Видеокодек: MPEG-4 AVC/H.264
Битрейт видео: ~1768 Кбит/сек
Размер кадра: 720x400
Аудиокодек: AC3 2.0
Битрейт аудио: 192 Кбит/сек

MediaInfo:

General
Unique ID : 238291284294672380719434055494707110218 (0xB3453B63C272C35BBDA2AA4BDE2EE14A)
Complete name : F:\Downloads\Дуэль в Диабло.mkv
Format : Matroska
Format version : Version 4 / Version 2
File size : 1.37 GiB
Duration : 1h 40mn
Overall bit rate : 1 962 Kbps
Encoded date : UTC 2014-02-02 13:20:57
Writing application : mkvmerge v6.4.1 ('Omega Point') built on Sep 16 2013 22:05:10
Writing library : libebml v1.3.0 + libmatroska v1.4.1
Video
ID : 1
Format : AVC
Format/Info : Advanced Video Codec
Format profile : [url=mailto:[email protected]][email protected][/url]
Format settings, CABAC : Yes
Format settings, ReFrames : 8 frames
Codec ID : V_MPEG4/ISO/AVC
Duration : 1h 40mn
Bit rate : 1 768 Kbps
Width : 720 pixels
Height : 400 pixels
Display aspect ratio : 16:9
Frame rate mode : Constant
Frame rate : 25.000 fps
Color space : YUV
Chroma subsampling : 4:2:0
Bit depth : 8 bits
Scan type : Progressive
Bits/(Pixel*Frame) : 0.246
Stream size : 1.21 GiB (88%)
Title : Duel at Diablo
Writing library : x264 core 130 r2273 b3065e6
Encoding settings : cabac=1 / ref=8 / deblock=1:0:0 / analyse=0x3:0x133 / me=umh / subme=9 / psy=1 / psy_rd=1.00:0.00 / mixed_ref=1 / me_range=32 / chroma_me=1 / trellis=2 / 8x8dct=1 / cqm=0 / deadzone=21,11 / fast_pskip=0 / chroma_qp_offset=-2 / threads=6 / lookahead_threads=1 / sliced_threads=0 / nr=0 / decimate=1 / interlaced=0 / bluray_compat=0 / constrained_intra=0 / bframes=3 / b_pyramid=2 / b_adapt=2 / b_bias=0 / direct=3 / weightb=1 / open_gop=0 / weightp=2 / keyint=250 / keyint_min=25 / scenecut=40 / intra_refresh=0 / rc_lookahead=60 / rc=2pass / mbtree=1 / bitrate=1768 / ratetol=1.0 / qcomp=0.60 / qpmin=10 / qpmax=51 / qpstep=4 / cplxblur=20.0 / qblur=0.5 / ip_ratio=1.40 / aq=1:1.00
Language : English
Default : Yes
Forced : No
Audio
ID : 2
Format : AC-3
Format/Info : Audio Coding 3
Mode extension : CM (complete main)
Format settings, Endianness : Big
Codec ID : A_AC3
Duration : 1h 40mn
Bit rate mode : Constant
Bit rate : 192 Kbps
Channel(s) : 2 channels
Channel positions : Front: L R
Sampling rate : 48.0 KHz
Bit depth : 16 bits
Compression mode : Lossy
Stream size : 137 MiB (10%)
Title : Профессиональный двухголосый (НТВ +)
Language : Russian
Default : Yes
Forced : No
Скриншоты:                    
Вне форума [Профиль] [ЛС]
Показать сообщения:    
Ответить на тему

Текущее время: Сегодня 13:10

Часовой пояс: GMT + 3



Вы не можете начинать темы
Вы не можете отвечать на сообщения
Вы не можете редактировать свои сообщения
Вы не можете удалять свои сообщения
Вы не можете голосовать в опросах
Вы не можете прикреплять файлы к сообщениям
Вы не можете скачивать файлы