Today is a free download without charge Download

Олимпийские игры 2014.Сочи. Церемония открытия (Спорт)(Первый канал.2014) HDTVRip [H.264/1080p-LQ]

Reply to topic
 
Author
Message

KirovSOFT ®

Gender:

Longevity: 8 years 2 months

Posts: 998

Location: Кировская область -Оричи

Торрент-статистика

Post 08-Feb-2014 13:47

[Quote]

[imgs][/imgs]Олимпийские игры 2014.Сочи. Церемония открытия - Телекомпания: Россия
Год выпуска: 2014
Жанр: Спорт
Перевод: не требуется (русский)
Субтитры: отсутствуют
Ведущие: Дмитрий Губерниев, Анастасия Чернобровина.
Описание:
Церемония состоялась 7 февраля 2014 года на Олимпийском стадионе «Фишт», в 20:14 по московскому времени. Всего в массовых постановочных сценах Церемонии открытия, включая танцевальные, балетные, акробатические и цирковые номера, приняли участие более 3000 молодых талантов из числа учащихся высших и средних учебных заведений, а также профессиональных творческих коллективов. Помогали в организации церемоний на площадках, за кулисами и на территории Олимпийского парка 2000 волонтеров «Сочи 2014». В начале Церемонии открытия показано несколько ярких видеофрагментов о России. После этого Президент России приветствовал зрителей Церемонии, и под звуки российского гимна состоится поднятие флага страны-хозяйки Игр-2014. Впервые в истории церемоний Олимпийских игр был изменен традиционный проход атлетов во время парада наций. Cпортсмены поднимались на сцену по специальной 48-метровой рампе, расположенной в центре стадиона. В параде наций приняли участие представители 88 делегаций. По традиции, Церемония открытия завершилась зажжением чаши Олимпийского огня. Театрализованная часть Церемонии представила основные этапы исторического развития России – от зарождения государственности до современности. Шоу стало самым высокотехнологичным за всю историю церемоний. Всего для реализации проведения Церемонии открытия XXII Олимпийских зимних игр 2014 года задействовано более 12 000 человек. Церемонию Открытия увенчал масштабный фейерверк из 3 500 залпов.
Продолжительность: 03:00:26
Качество видео: HDTVRip [H.264/1080p-LQ]
Битрейт видео: ~6000 кбит/с
Размер кадра: 1920х1080
Аудиокодек: AC3 2.0
Битрейт аудио: 384 кбит/с

MediaInfo

Код:
Общее
Уникальный идентификатор                 : 168348648403719580577546155723716462494 (0x7EA6C532C2870C1E037BA147C20E879E)
Полное имя                               : E:\Закачки\Олимпийские игры 2014. Сочи. Церемония открытия.mkv
Формат                                   : Matroska
Версия формата                           : Version 2
Размер файла                             : 8,38 Гбайт
Продолжительность                        : 3 ч. 0 м.
Режим общего битрейта                    : Переменный
Общий поток                              : 6648 Кбит/сек
Программа кодирования                    : Lavf51.12.1
Библиотека кодирования                   : Lavf51.12.1
Видео
Идентификатор                            : 1
Формат                                   : AVC
Формат/Информация                        : Advanced Video Codec
Профиль формата                          : [url=mailto:[email protected]][email protected][/url]
Параметр CABAC формата                   : Нет
Параметр ReFrames формата                : 1 кадр
Параметр GOP формата                     : M=1, N=12
Идентификатор кодека                     : V_MPEG4/ISO/AVC
Продолжительность                        : 3 ч. 0 м.
Вид битрейта                             : Переменный
Битрейт                                  : 6131 Кбит/сек
Максимальный битрейт                     : 9000 Кбит/сек
Ширина                                   : 1920 пикселей
Высота                                   : 1080 пикселей
Соотношение сторон                       : 16:9
Режим частоты кадров                     : Постоянный
Частота кадров                           : 25,000 кадров/сек
Частота кадров в оригинале               : 24,000 кадра/сек
Цветовое пространство                    : YUV
Субдискретизация насыщенности            : 4:2:0
Битовая глубина                          : 8 бит
Тип развёртки                            : Прогрессивная
Бит/(Пиксели*Кадры)                      : 0.118
Размер потока                            : 7,73 Гбайт (92%)
Default                                  : Да
Forced                                   : Нет
Аудио
Идентификатор                            : 2
Формат                                   : AC-3
Формат/Информация                        : Audio Coding 3
Расширение режима                        : CM (complete main)
Параметр Endianness формата              : Big
Идентификатор кодека                     : A_AC3
Продолжительность                        : 3 ч. 0 м.
Вид битрейта                             : Постоянный
Битрейт                                  : 384 Кбит/сек
Каналы                                   : 2 канала
Расположение каналов                     : Front: L R
Частота                                  : 48,0 КГц
Битовая глубина                          : 16 бит
Метод сжатия                             : С потерями
Размер потока                            : 496 Мбайт (6%)
Default                                  : Да
Forced                                   : Нет
Скриншоты:            

_________________
Other forum [Profile] [PM]
Display posts from previous:    
Reply to topic

The time now is: Today 03:05

All times are GMT + 3 Hours



You cannot post new topics in this forum
You cannot reply to topics in this forum
You cannot edit your posts in this forum
You cannot delete your posts in this forum
You cannot vote in polls in this forum
You cannot attach files in this forum
You cannot download files in this forum