Сегодня идет свободное скачивание без начисления Download

Филадельфийский эксперимент / The Philadelphia Experiment (Стюарт Рэффил, 1984, Фантастика, Триллер, Приключения) DVDRip

Ответить на тему
 
Автор
Сообщение

Omen ®

Стаж: 4 года 1 месяц

Сообщений: 194359

Торрент-статистика

Пост 15-Фев-2014 11:38

[Цитировать]

Филадельфийский эксперимент
The Philadelphia Experiment
- Год выпуска: 1984
Производство: США | New world pictures
Жанр: Фантастика, Триллер, Приключения
Описание фильма:
Вторая мировая война. Испытывается оборудование, которое делает американские военные корабли невидимыми для радаров противника. Во время этих экспериментов исчезает один боевой корабль, а два моряка оказываются заброшенными в 1984 год.
Режиссер: Стюарт Рэффил
Актеры: Майкл Паре, Нэнси Аллен, Эрик Кристмас, Бобби Ди Чикко, Луиз Лэтэм, Кин Холлидэй, Джо Дорси, Майкл Карри, Стивен Тоболовски, Гэри Брокетт

Продолжительность: 01:33:35
Качество видео: DVDRip
Перевод: Профессиональный (Полное дублирование)
Дата мировой премьеры: 3 августа 1984
Дата выхода DVD релиза: 1 марта 2007, «Cinema Prestige»
Видео: Xvid, 720 x 384 (1.85:1), 23.976 fps, ~1900 kbps avg, 0.287 bit/pixel
Аудио: 48 kHz, Audio Coding 3 Dolby Digital, 2 ch (Front: L, R), ~192 kbps avg
Сэмпл: Ссылка

MediaINfo

Код:
General
Complete name                  : D:\фильмы\Filadelfijskij.experiment.1984.DVDRip.avi
Format                         : AVI
Format/Info                    : Audio Video Interleave
File size                      : 1.37 GiB
Duration                       : 1h 33mn
Overall bit rate               : 2 101 Kbps
Writing application            : VirtualDubModRus 1.5.10.2 (build 2540/release)
Writing library                : VirtualDubMod build 2540/release
Video
ID                             : 0
Format                         : MPEG-4 Visual
Format profile                 : Advanced [email protected]
Format settings, BVOP          : Yes
Format settings, QPel          : No
Format settings, GMC           : No warppoints
Format settings, Matrix        : Default (MPEG)
Codec ID                       : XVID
Codec ID/Hint                  : XviD
Duration                       : 1h 33mn
Bit rate                       : 1 900 Kbps
Width                          : 720 pixels
Height                         : 384 pixels
Display aspect ratio           : 1.85:1
Frame rate                     : 23.976 fps
Color space                    : YUV
Chroma subsampling             : 4:2:0
Bit depth                      : 8 bits
Scan type                      : Progressive
Compression mode               : Lossy
Bits/(Pixel*Frame)             : 0.287
Stream size                    : 1.24 GiB (90%)
Writing library                : XviD 64
Audio
ID                             : 1
Format                         : AC-3
Format/Info                    : Audio Coding 3
Mode extension                 : CM (complete main)
Format settings, Endianness    : Big
Codec ID                       : 2000
Duration                       : 1h 33mn
Bit rate mode                  : Constant
Bit rate                       : 192 Kbps
Channel(s)                     : 2 channels
Channel positions              : Front: L R
Sampling rate                  : 48.0 KHz
Bit depth                      : 16 bits
Compression mode               : Lossy
Stream size                    : 129 MiB (9%)
Alignment                      : Split accross interleaves
Interleave, duration           : 42 ms (1.00 video frame)
Interleave, preload duration   : 500 ms
Скриншоты:
           
Вне форума [Профиль] [ЛС]
Показать сообщения:    
Ответить на тему

Текущее время: Сегодня 05:08

Часовой пояс: GMT + 3



Вы не можете начинать темы
Вы не можете отвечать на сообщения
Вы не можете редактировать свои сообщения
Вы не можете удалять свои сообщения
Вы не можете голосовать в опросах
Вы не можете прикреплять файлы к сообщениям
Вы не можете скачивать файлы