Today is a free download without charge Download

WebForMySelf | Премиум-уроки (2014-2018) PCRec [H.264]

Reply to topic
 
Author
Message

Omen ®

Longevity: 6 years 10 months

Posts: 181090

Торрент-статистика

Post 15-Feb-2014 14:00

[Quote]

орпро WebForMySelf
Премиум-уроки
- Автор (режиссер): WebForMySelf
Производство: В. Минин, А. Бернацкий, В. Гавриленко, А. Кудлай, Д. Булыга
Жанр: Программирование, HTML, CSS, JS, PHP
Описание:
Это полное собрание премиум-уроков за 2014-2018 года от команды профессиональных веб-разработчиков WebForMySelf.com.
Продолжительность: 352:36:53
Качество видео: PCRec
Видео: AVC/H.264, 800x600-1280x720, ~41-1892 Kbps
Аудио: AAC, 2 ch, 91-193 Kbps

Mediainfo:

Общее
Полное имя : \WordPress\2. Темизация WordPress. Cоздание и установка уникальной темы. 2014\Урок 1\Урок 1. Темизация WordPress. Cоздание и установка уникальной темы.mp4
Формат : MPEG-4
Профиль формата : Base Media / Version 2
Идентификатор кодека : mp42 (M4V /mp42/isom)
Размер файла : 683 Мбайт
Продолжительность : 3 ч. 23 м.
Общий поток : 469 Кбит/сек
Дата кодирования : UTC 2015-05-02 13:41:50
Дата пометки : UTC 2015-05-02 13:41:50
Видео
Идентификатор : 1
Формат : AVC
Формат/Информация : Advanced Video Codec
Профиль формата : [email protected]
Параметр CABAC формата : Да
Параметр RefFrames формата : 4 кадра
Идентификатор кодека : avc1
Идентификатор кодека/Информация : Advanced Video Coding
Продолжительность : 3 ч. 23 м.
Продолжительность оригинала : 3 ч. 23 м.
Битрейт : 344 Кбит/сек
Ширина : 800 пикселей
Высота : 600 пикселей
Соотношение сторон : 4:3
Режим частоты кадров : Постоянный
Частота кадров : 15,000 кадров/сек
Цветовое пространство : YUV
Субдискретизация насыщенности : 4:2:0
Битовая глубина : 8 бит
Тип развёртки : Прогрессивная
Бит/(Пиксели*Кадры) : 0.048
Размер потока : 501 Мбайт (73%)
Размер потока оригинала : 501 Мбайт (73%)
Язык : English
Дата кодирования : UTC 2015-05-02 13:41:50
Дата пометки : UTC 2015-05-02 13:41:50
Цветовой диапазон : Limited
Основные цвета : BT.709
Характеристики трансфера : BT.709
Коэффициенты матрицы : BT.709
mdhd_Duration : 12201139
Аудио
Идентификатор : 2
Формат : AAC
Формат/Информация : Advanced Audio Codec
Профиль формата : LC
Идентификатор кодека : 40
Продолжительность : 3 ч. 23 м.
Продолжительность оригинала : 3 ч. 23 м.
Вид битрейта : Постоянный
Битрейт : 122 Кбит/сек
Каналы : 2 канала
Расположение каналов : Front: L R
Частота : 44,1 КГц
Частота кадров : 43,066 кадра/сек (1024 SPF)
Метод сжатия : С потерями
Размер потока : 179 Мбайт (26%)
Размер потока оригинала : 179 Мбайт (26%)
Язык : English
Дата кодирования : UTC 2015-05-02 13:41:50
Дата пометки : UTC 2015-05-02 13:41:50
mdhd_Duration : 12275627
Общее
Полное имя : \HTML&CSS\1. Курс по CSS3. 2015\Урок 3\Урок 3. Прозрачность.mp4
Формат : MPEG-4
Профиль формата : Base Media / Version 2
Идентификатор кодека : mp42 (M4V /mp42/isom)
Размер файла : 50,1 Мбайт
Продолжительность : 24 м. 32 с.
Общий поток : 285 Кбит/сек
Дата кодирования : UTC 2015-04-29 09:25:32
Дата пометки : UTC 2015-04-29 09:25:32
Видео
Идентификатор : 1
Формат : AVC
Формат/Информация : Advanced Video Codec
Профиль формата : [email protected]
Параметр CABAC формата : Да
Параметр RefFrames формата : 4 кадра
Идентификатор кодека : avc1
Идентификатор кодека/Информация : Advanced Video Coding
Продолжительность : 24 м. 32 с.
Продолжительность оригинала : 24 м. 32 с.
Битрейт : 158 Кбит/сек
Ширина : 900 пикселей
Высота : 800 пикселей
Соотношение сторон : 1,125
Режим частоты кадров : Постоянный
Частота кадров : 15,000 кадров/сек
Цветовое пространство : YUV
Субдискретизация насыщенности : 4:2:0
Битовая глубина : 8 бит
Тип развёртки : Прогрессивная
Бит/(Пиксели*Кадры) : 0.015
Размер потока : 27,8 Мбайт (55%)
Размер потока оригинала : 27,8 Мбайт (55%)
Язык : English
Дата кодирования : UTC 2015-04-29 09:25:32
Дата пометки : UTC 2015-04-29 09:25:32
Цветовой диапазон : Limited
Основные цвета : BT.709
Характеристики трансфера : BT.709
Коэффициенты матрицы : BT.709
mdhd_Duration : 1472750
Аудио
Идентификатор : 2
Формат : AAC
Формат/Информация : Advanced Audio Codec
Профиль формата : LC
Идентификатор кодека : 40
Продолжительность : 24 м. 32 с.
Продолжительность оригинала : 24 м. 32 с.
Вид битрейта : Постоянный
Битрейт : 125 Кбит/сек
Каналы : 2 канала
Расположение каналов : Front: L R
Частота : 44,1 КГц
Частота кадров : 43,066 кадра/сек (1024 SPF)
Метод сжатия : С потерями
Размер потока : 22,0 Мбайт (44%)
Размер потока оригинала : 22,0 Мбайт (44%)
Язык : English
Дата кодирования : UTC 2015-04-29 09:25:32
Дата пометки : UTC 2015-04-29 09:25:32
mdhd_Duration : 1471889
Общее
Полное имя : \WordPress\4. Уроки по CMS WordPress. 2015\Урок 9\Урок 9. Выпадающее меню для темы WordPress.mp4
Формат : MPEG-4
Профиль формата : Base Media / Version 2
Идентификатор кодека : mp42 (M4V /mp42/isom)
Размер файла : 131 Мбайт
Продолжительность : 56 м. 52 с.
Общий поток : 322 Кбит/сек
Дата кодирования : UTC 2015-04-25 15:47:31
Дата пометки : UTC 2015-04-25 15:47:31
Видео
Идентификатор : 1
Формат : AVC
Формат/Информация : Advanced Video Codec
Профиль формата : [email protected]
Параметр CABAC формата : Да
Параметр RefFrames формата : 4 кадра
Идентификатор кодека : avc1
Идентификатор кодека/Информация : Advanced Video Coding
Продолжительность : 56 м. 52 с.
Продолжительность оригинала : 56 м. 52 с.
Битрейт : 195 Кбит/сек
Ширина : 1024 пикселя
Высота : 768 пикселей
Соотношение сторон : 4:3
Режим частоты кадров : Постоянный
Частота кадров : 15,000 кадров/сек
Цветовое пространство : YUV
Субдискретизация насыщенности : 4:2:0
Битовая глубина : 8 бит
Тип развёртки : Прогрессивная
Бит/(Пиксели*Кадры) : 0.016
Размер потока : 79,1 Мбайт (60%)
Размер потока оригинала : 79,1 Мбайт (60%)
Язык : English
Дата кодирования : UTC 2015-04-25 15:47:31
Дата пометки : UTC 2015-04-25 15:47:31
Цветовой диапазон : Limited
Основные цвета : BT.709
Характеристики трансфера : BT.709
Коэффициенты матрицы : BT.709
mdhd_Duration : 3411343
Аудио
Идентификатор : 2
Формат : AAC
Формат/Информация : Advanced Audio Codec
Профиль формата : LC
Идентификатор кодека : 40
Продолжительность : 56 м. 52 с.
Продолжительность оригинала : 56 м. 52 с.
Вид битрейта : Постоянный
Битрейт : 126 Кбит/сек
Каналы : 2 канала
Расположение каналов : Front: L R
Частота : 44,1 КГц
Частота кадров : 43,066 кадра/сек (1024 SPF)
Метод сжатия : С потерями
Размер потока : 51,0 Мбайт (39%)
Размер потока оригинала : 51,0 Мбайт (39%)
Язык : English
Дата кодирования : UTC 2015-04-25 15:47:31
Дата пометки : UTC 2015-04-25 15:47:31
mdhd_Duration : 3408743
Общее
Полное имя : \Фреймворки\4. Фреймворк Bootstrap 4. 2017\Урок 3\Урок 3. Фреймворк Bootstrap 4. Сетка Bootstrap 4. Часть 1.mp4
Формат : MPEG-4
Профиль формата : Base Media / Version 2
Идентификатор кодека : mp42 (isom/mp42)
Размер файла : 30,8 Мбайт
Продолжительность : 16 м. 13 с.
Режим общего битрейта : Переменный
Общий поток : 265 Кбит/сек
Дата кодирования : UTC 2017-06-25 09:08:13
Дата пометки : UTC 2017-06-25 09:08:13
Видео
Идентификатор : 1
Формат : AVC
Формат/Информация : Advanced Video Codec
Профиль формата : [url=mailto:[email protected]][email protected][/url]
Параметр CABAC формата : Нет
Параметр RefFrames формата : 3 кадра
Идентификатор кодека : avc1
Идентификатор кодека/Информация : Advanced Video Coding
Продолжительность : 16 м. 13 с.
Битрейт : 137 Кбит/сек
Ширина : 1280 пикселей
Высота : 720 пикселей
Соотношение сторон : 16:9
Режим частоты кадров : Постоянный
Частота кадров : 30,000 кадров/сек
Стандарт вещания : NTSC
Цветовое пространство : YUV
Субдискретизация насыщенности : 4:2:0
Битовая глубина : 8 бит
Тип развёртки : Прогрессивная
Бит/(Пиксели*Кадры) : 0.005
Размер потока : 15,9 Мбайт (52%)
Язык : English
Дата кодирования : UTC 2017-06-25 09:08:13
Дата пометки : UTC 2017-06-25 09:08:13
Цветовой диапазон : Limited
Аудио
Идентификатор : 2
Формат : AAC
Формат/Информация : Advanced Audio Codec
Профиль формата : LC
Идентификатор кодека : 40
Продолжительность : 16 м. 13 с.
Продолжительность оригинала : 16 м. 13 с.
Вид битрейта : Переменный
Битрейт : 126 Кбит/сек
Максимальный битрейт : 433 Кбит/сек
Каналы : 2 канала
Расположение каналов : Front: L R
Частота : 44,1 КГц
Частота кадров : 43,066 кадра/сек (1024 SPF)
Метод сжатия : С потерями
Размер потока : 14,6 Мбайт (47%)
Размер потока оригинала : 14,6 Мбайт (47%)
Язык : English
Дата кодирования : UTC 2017-06-25 09:08:13
Дата пометки : UTC 2017-06-25 09:08:13

Дополнительная информация:

В раздаче имеются архивы! В них содержится исходники.

Содержание:

Drupal
1. Курс по Drupal. Основы. 2017
HTML&CSS
1. Курс по CSS3. 2015
2. Учебник по основам HTML для начинающих. 2015
3. Верстка сайта для начинающих. 2015
4. Учебник по основам CSS для начинающих. 2015
5. Курс по HTML5. Основы. 2016
6. Анатомия прибыльного лендинг пейдж. 2016
7. Эффекты Parallax. 2017
8. Инструменты для оптимизации скорости загрузки сайта. 2017
9. Редактор Sublime Text. 2017
10. Графический редактор Photoshop. 2017
11. CSS генераторы кода. 2017
12. Редактор Notepad++. 2017
13. Полезные плагины для браузера Google Chrome. 2017
14. Курс по Flexbox. 2018
15. Курс по CSS3. 2018
16. Препроцессор Sass. Введение. 2018
17. Теория и практика адаптивной верстки. 2018
JavaScript
1. Проверка формы без перезагрузки с помощью JavaScript. 2014
2. Создание зависимых списков средствами AJAX. 2014
3. Создание диаграмм с помощью Google Chart. 2015
4. Уроки AngularJS. 2017
5. Курс по JavaScript. Основы. 2017
6. Курс по jQuery. Основы. 2017
7. Курс по NodeJS. Основы. 2017
8. Курс по Gulp. Основы. 2017
9. Курс по Webpack. Основы. 2017
10. Курс по ES 6 (EcmaScript 6). 2017
11. Курс по RxJS (Reactive-Extensions). 2017
12. Курс по TypeScript. 2017
13. Курс по React JS Material UI. 2017
14. Курс по Git и Github. 2017
15. Курс по MongoDB. 2017
16. Angular 4 NgRx. 2017
17. Библиотека JQuery UI (User Interface). 2018
18. Создание чата на NodeJS, SocketIO и VueJS. 2018
Joomla
1. Создание модулей Joomla. 2015
2. Joomla-Ученик 12 фишек без которых Вы гарантированно не создадите полноценный сайт на Joomla. 2017
3. Обзор расширений Joomla. 2017
PHP
1. Создание фотогалереи как Вконтакте. 2014
2. Создание доски объявлений на PHP. 2014
3. Курс по объектно-ориентированному программированию (ООП PHP). 2014
4. Класс PHP DirectoryIterator - удобный интерфейс. 2014
5. Cоздание гостевой книги на сайте с помощью PHP. 2014
6. Вывод данных в формате PDF на PHP. 2014
7. Курс по базе данных MySQL. 2014
8. Создание облака тегов на языках PHP и jQuery. 2014
9. Работа с zip архивами на PHP. 2014
10. Создание файлового менеджера с помощью DirectoryIterator. 2015
11. Создание регистрации и авторизации на сайте с помощью PHP. 2015
12. Создание сайта на CMS DLE. 2015
13. Авторизация на сайте при помощи ООП PHP. 2015
14. Курс по регулярным выражениям на PHP. 2015
15. Шаблонизатор. 2015
16. Создание звездного рейтинга статей для сайта на PHP. 2015
17. Создание системы тестирования на PHP. 2015
18. Cоздание каталога товаров с помощью PHP, MySQL и jQuery. 2017
19. Курс по PHP программированию. 2017
20. Безопасность и защита сайта от угроз и взлома. 2017
21. Курс по объектно-ориентированному программированию (ООП PHP). 2018
22. Библиотека ORM – RedBeanPHP. 2018
23. Основы ORM библиотеки Doctrine. 2018
WordPress
1. Создание интернет-магазина на CMS WordPress. 2014
2. Темизация WordPress. Cоздание и установка уникальной темы. 2014
3. WordPress-Ученик 12 фишек без которых Вы гарантированно не создадите полноценный сайт на WordPress. 2015
4. Уроки по CMS WordPress. 2015
Фреймворки
1. Фреймворк CakePHP. Уроки, документация, обучение, использование. 2016
2. Курс по микрофреймворку Slim PHP. 2017
3. Фреймворк YII2 от теории к практике создания сайта. 2017
4. Фреймворк Bootstrap 4. 2017

История обновлений:

16.01.2019 - Торрент файл обновлен.
drupal
1. Курс по Drupal. Основы + 4 новых урока
HTML&CSS
13. Полезные плагины для браузера Google Chrome + 6 новых уроков
14. Курс по Flexbox - новый курс
15. Курс по CSS3 - новый курс
16. Препроцессор Sass. Введение - новый курс
17. Теория и практика адаптивной верстки - новый курс
JavaScript
6. Курс по jQuery. Основы + 2 новых урока
16. Angular 4 NgRx - 8 новых уроков
17. Библиотека JQuery UI (User Interface) - новый курс
18. Создание чата на NodeJS, SocketIO и VueJS - новый курс
PHP
18. Создание каталога товаров с помощью PHP, MySQL и jQuery + 4 новых урока
19. Курс по PHP программированию + 7 уроков
20. Безопасность и защита сайта от угроз и взлома + 11 новых уроков
21. Курс по объектно-ориентированному программированию (ООП PHP) - новый курс
22. Библиотека ORM – RedBeanPHP - новый курс
23. Основы ORM библиотеки Doctrine - новый курс
Итого за прошлый 2018 год было снято 43 часа видео!

Раздача ведётся путём добавления новых файлов:

Раздача ведётся путём добавления новых файлов; при каждом добавлении создаётся новый торрент. Чтобы начать докачку новых файлов, пользователям необходимо сделать следующее:
(1) остановить скачивание,
(2) удалить старый торрент у себя из клиента (имеющиеся файлы удалять не надо),
(3) скачать новый торрент и запустить его у себя в клиенте вместо старого, при этом указать клиенту путь в старую папку, куда и должно происходить скачивание новых файлов.
Ваш клиент при этом должен произвести хеширование (проверку) старой папки (если не производит сам - помогите ему сделать это), и будет докачивать только те файлы, которых у вас ещё нет. Старые файлы при этом не удаляются, а продолжают раздаваться!
Eсли вы уже удалили старые файлы, то предотвратить повторную закачку старых файлов можно, отжав галочку в соответствующих местах при запуске нового торрента. По возможности, желательно не удалять старые файлы как можно дольше, чтобы релизёр не только продолжал раздавать старые файлы, а смог сконцентрироваться на новых.
Скриншоты:
       
Other forum [Profile] [PM]
Display posts from previous:    
Reply to topic

The time now is: Today 07:05

All times are GMT + 3 Hours



You cannot post new topics in this forum
You cannot reply to topics in this forum
You cannot edit your posts in this forum
You cannot delete your posts in this forum
You cannot vote in polls in this forum
You cannot attach files in this forum
You cannot download files in this forum