Сегодня идет свободное скачивание без начисления Download

Истории обыкновенного безумия / Storie di ordinaria follia / Tales of Ordinary Madness (Марко Феррери)(Драма, эротика.1981) DVDRip

Ответить на тему
 
Автор
Сообщение

KirovSOFT ®

Пол:

Стаж: 6 лет

Сообщений: 1323

Откуда: Кировская область -Оричи

Торрент-статистика

Пост 21-Фев-2014 20:39

[Цитировать]

Истории обыкновенного безумия / Storie di ordinaria follia / Tales of Ordinary Madness - Год выпуска: 1981
Производство: Италия, Франция | 23 giugno Rome, Alpes International Paris, Ginis Films
Жанр: Драма, эротика
Перевод: (Многоголосый закадровый),(двуголосый закадровый)
Субтитры: Отсутствуют
Возраст: 18+
Дата мировой премьеры: 11 сентября 1981, Италия
Дата выхода DVD релиза: 7 апреля 2010, «Кармен Видео»
Режиссер: Марко Феррери
Сценарий: Марко Феррери, Серджо Амидеи, Чарльз Буковски, Энтони Фуц
Продюсер: Жаклин Феррери, Серджо Гальяно
Актеры: Бен Газзара, Орнелла Мути, Сьюзен Тиррел, Таня Лопер, Рой Броксмит, Катя Бергер, Хоуп Камерон, Джудит Дрэйк, Патрик Хьюз, Венди Уэллс, Стрэттон Леопольд, Энтони Питилло, Джей Жюльен, Питер Джарвис, Жан-Поль Бучер, Кристина Форти, Элизабет Лонг, Карло Монни
Описание фильма:
Мошенники разных мастей, проститутки, отбросы американского "дна" — вот неиссякаемые источники, из которых черпает вдохновение Чарлз. Он привязывается к проститутке Кэсс, но этот странный роман завершается трагически: Кэсс кончает жизнь самоубийством, почувствовав бессмысленность существования.

Продолжительность: 01:37:35
Качество видео: DVDRip
Видеокодек: Xvid
Битрейт видео: 1892 кбит/c
Размер кадра: 720x448
Аудио 1: AC3 2.0, 192 кбит/c | ТРК "Петербург - Пятый канал"
Аудио 2: AC3 2.0, 192 кбит/c | "Кармен Видео"

MediaInfo:

General
Complete name : D:\Storie_di_ordinaria_follia_1981.DVDRip.XviD.avi
Format : AVI
Format/Info : Audio Video Interleave
File size : 1.56 GiB
Duration : 1h 37mn
Overall bit rate : 2 291 Kbps
Writing application : VirtualDubMod 1.5.10.3 (build 2550/release)
Writing library : VirtualDubMod build 2550/release
Video
ID : 0
Format : MPEG-4 Visual
Format profile : Advanced [email protected]
Format settings, BVOP : 2
Format settings, QPel : No
Format settings, GMC : No warppoints
Format settings, Matrix : Custom
Codec ID : XVID
Codec ID/Hint : XviD
Duration : 1h 37mn
Bit rate : 1 892 Kbps
Width : 720 pixels
Height : 448 pixels
Display aspect ratio : 1.607
Frame rate : 25.000 fps
Color space : YUV
Chroma subsampling : 4:2:0
Bit depth : 8 bits
Scan type : Progressive
Compression mode : Lossy
Bits/(Pixel*Frame) : 0.235
Stream size : 1.29 GiB (83%)
Writing library : XviD 1.2.1 (UTC 2008-12-04)
Audio #1
ID : 1
Format : AC-3
Format/Info : Audio Coding 3
Mode extension : CM (complete main)
Format settings, Endianness : Big
Codec ID : 2000
Duration : 1h 37mn
Bit rate mode : Constant
Bit rate : 192 Kbps
Channel(s) : 2 channels
Channel positions : Front: L R
Sampling rate : 48.0 KHz
Bit depth : 16 bits
Compression mode : Lossy
Stream size : 134 MiB (8%)
Alignment : Split accross interleaves
Interleave, duration : 40 ms (1.00 video frame)
Interleave, preload duration : 500 ms
Audio #2
ID : 2
Format : AC-3
Format/Info : Audio Coding 3
Mode extension : CM (complete main)
Format settings, Endianness : Big
Codec ID : 2000
Duration : 1h 37mn
Bit rate mode : Constant
Bit rate : 192 Kbps
Channel(s) : 2 channels
Channel positions : Front: L R
Sampling rate : 48.0 KHz
Bit depth : 16 bits
Compression mode : Lossy
Stream size : 134 MiB (8%)
Alignment : Split accross interleaves
Interleave, duration : 40 ms (1.00 video frame)
Interleave, preload duration : 500 ms
Скриншоты:
                   

_________________
Вне форума [Профиль] [ЛС]
Похожие темы
Форум Тема Автор Торрент Отв. Посл. сообщение
./templates/default/images/folder_dl.gif Фильмы до 2000 года А зори здесь тихие (Станислав Ростоцкий, 1972) [Полная широкоэкранная версия] (Драма, Военный, История) DVDRip Omen
1 | 0

1 | 1475

22

2013-05-09 18:34
aleksart Последнее
./templates/default/images/folder_dl.gif Фантастика, фэнтези, ужасы, мистика [Миры Содружества (Вселенная EVE-online)] Евгений Хван (Astrollet) - Цикл - «715-й» (книги 1-4) [2015-2016, Космическая фантастика, Альтернативная история, Попаданцы, FB2] Omen
1 | 0

0 | 408

3

2016-12-02 01:00
Omen Последнее
./templates/default/images/folder_dl.gif Бизнес, Право, Экономика, Финансы Джефф Паттон | Пользовательские истории. Искусство гибкой разработки ПО (2017) [PDF, FB2, EPUB] }{@R0N
1 | 0

0 | 12310

6

2017-09-16 22:15
}{@R0N Последнее
./templates/default/images/folder_dl.gif Новинки (BD|HDTV|DVD) Легенда о Коловрате (Джаник Файзиев, Иван Шурховецкий) [2017 г., история, боевик, фэнтези, WEB-DL 1080p] iTunes Theseus
1 | 0

0 | 1351

6

2018-01-31 02:23
Theseus Последнее
./templates/default/images/folder_dl.gif Новинки (HD|DVD|BD|WEB|TV|SAT|PDTV|-Rip) Уотергейт. Крушение Белого дома / Mark Felt: The Man Who Brought Down the White House (Питер Ландесман) [2017, триллер, драма, биография, история, BDRip-AVC] | MVO [Лицензия] Theseus
1 | 0

0 | 1743

9

2018-01-31 15:15
Theseus Последнее
./templates/default/images/folder_dl.gif Новинки (BD|HDTV|DVD) Кавалерия / 12 Strong (Николай Фульси) [2018, боевик, драма, военный, история, BDRip 720p] DUB | Чистый звук Theseus
1 | 0

0 | 113

1

2018-04-18 16:53
Theseus Последнее
Показать сообщения:    
Ответить на тему

Текущее время: Сегодня 08:02

Часовой пояс: GMT + 3



Вы не можете начинать темы
Вы не можете отвечать на сообщения
Вы не можете редактировать свои сообщения
Вы не можете удалять свои сообщения
Вы не можете голосовать в опросах
Вы не можете прикреплять файлы к сообщениям
Вы не можете скачивать файлы