Сегодня идет свободное скачивание без начисления Download

Железные кулаки / Кастет / Fists of Iron (Ричард У. Манчкин) [1995 г., боевик, DVDRip] AVO

Ответить на тему
 
Автор
Сообщение

O.S.A. ®

Пол:

Стаж: 3 года 1 месяц

Сообщений: 4520

Откуда: СССР

Торрент-статистика

Пост 07-Мар-2014 14:32

[Цитировать]

--Железные кулаки / Кастет / Fists of Iron-- Год выпуска: 1995
Страна: США
Производство: Century Film Partners Inc.
Жанр: боевик
Продолжительность: 01:30:44
Перевод: Авторский (одноголосый закадровый) - [В. Дохалов]-Режиссер: Ричард У. Манчкин-В ролях: Майкл Уорт, Дженили Хэррисон, Маршалл Тиг, Мэттайэс Хьюз, Эрик Ли, Ник Хилл, Сэм Джоунс...-Описание: Молодой парень (Уорт), работающий автослесарем, неплохо умеющий драться и держать удар, приходит со своим другом посмотреть на кулачные бои, ведущиеся без правил. А вернее, в них одно правило - победить надо любой ценой. В конце поединка на арену пригласили желающих продержаться одну минуту против чемпиона. Друг вышел на бой, продержался минуту, но ночью умер. Тогда слесарь решил отомстить за смерть друга.-- --Качество: DVDRip
Формат: AVI
Видео кодек: XviD
Аудио кодек: AC3
Видео: 720x552 (1.30:1), 23.976 fps, XviD build 65, ~1960 kbps avg, 0.21 bit/pixel
Аудио: 48.0 kHz, AC3 Dolby Digital, 2/0 (L,R) ch, ~192.00 kbps avg
Субтитры: нет--

Media Info

Общее
Полное имя:Geleznie.kylaki.1995.XviD.DVDRip.AVO_SergV.avi
Формат : AVI
Формат/Информация : Audio Video Interleave
Размер файла : 1,37 Гбайт
Продолжительность : 1 ч. 30 м.
Общий поток : 2161 Кбит/сек
Название фильма : Geleznie.kylaki.1995.XviD.DVDRip.AVO_SergV
Программа кодирования : VirtualDubMod 1.5.10.3 | www.virtualdub-fr.org || (build 2550/release)
Примечание : Рип от SergV
Видео
Идентификатор : 0
Формат : MPEG-4 Visual
Профиль формата : Advanced [email protected]
Параметр BVOP формата : 2
Параметр QPel формата : Нет
Параметр GMC формата : Без точки перехода
Параметр матрицы формата : Default (MPEG)
Идентификатор кодека : XVID
Идентификатор кодека/Подсказка : XviD
Продолжительность : 1 ч. 30 м.
Битрейт : 1960 Кбит/сек
Ширина : 720 пикселей
Высота : 552 пикселя
Соотношение сторон : 4:3
Частота кадров : 23,976 кадра/сек
Цветовое пространство : YUV
Субдискретизация насыщенности : 4:2:0
Битовая глубина : 8 бит
Тип развёртки : Прогрессивная
Метод сжатия : С потерями
Бит/(Пиксели*Кадры) : 0.206
Размер потока : 1,24 Гбайт (91%)
Библиотека кодирования : XviD 65
Аудио
Идентификатор : 1
Формат : AC-3
Формат/Информация : Audio Coding 3
Расширение режима : CM (complete main)
Параметр Endianness формата : Big
Идентификатор кодека : 2000
Продолжительность : 1 ч. 30 м.
Вид битрейта : Постоянный
Битрейт : 192 Кбит/сек
Каналы : 2 канала
Расположение каналов : Front: L R
Частота : 48,0 КГц
Битовая глубина : 16 бит
Метод сжатия : С потерями
Размер потока : 125 Мбайт (9%)
Выравнивание : Разделение по промежуткам
Продолжительность промежутка : 42 мс. (1,00 видеокадр)
Время предзагрузки промежутка : 500 мс.

Скриншоты

       
-- --

_________________

===============================
IGNOSCITO SAEPE ALTERI, NUNQUAM TIBI
Вне форума [Профиль] [ЛС]
Показать сообщения:    
Ответить на тему

Текущее время: Сегодня 05:13

Часовой пояс: GMT + 3



Вы не можете начинать темы
Вы не можете отвечать на сообщения
Вы не можете редактировать свои сообщения
Вы не можете удалять свои сообщения
Вы не можете голосовать в опросах
Вы не можете прикреплять файлы к сообщениям
Вы не можете скачивать файлы