Сегодня идет свободное скачивание без начисления Download

Кто я? / Who am i? / Wo shi shei (Джеки Чан, Бенни Чан) [1998 г., Боевик / Приключения, HDTVRip , 720p, AC3 5.1]

Ответить на тему
 
Автор
Сообщение

Omen ®

Стаж: 4 года 1 месяц

Сообщений: 194394

Торрент-статистика

Пост 08-Дек-2011 21:39

[Цитировать]

Кто я? / Who am i? / Wo shi shei -«Fight now. Ask questions later.»- Русское название: Кто я?
Оригинальное название: Wo shi shei
Год выпуска: 1998
Жанр: Боевик, Комедия, Приключения -Выпущено: Гонконг, Golden Harvest Company Ltd-Описание фильма:
Группа спецназа, работающая под прикрытием ЦРУ, направляется на задание по вывозу энергетического тела, которое было найдено учеными в африканских джунглях. По окончании операции всю группу пытаются ликвидировать.
Один из солдат, выживший после авиакатастрофы, но потерявший память, пытается бороться со своими мыслями и вспомнить, кто он. На пути к истине ему мешают, и он не знает, кому можно верить.
-Режиссер: Бенни Чан, Джеки Чан
Актеры: Джеки Чан, Мишель Ферре, Мираи Ямамото, Рон Смержак, Эд Нелсон, Том Ромперт, Глори Саймон-Продолжительность: 01:47:57- -Дата мировой премьеры: 17 января 1998-Видеокодек: MPEG-4 AVC/H.264
Битрейт видео: ~5332 Кбит/с
Размер кадра: 1280x720
Качество видео: HDTVRip
Битрейт аудио:
Аудио №1: Russian: 48 kHz, AC3 6 ch @ 448 kbps |Дублированный|
Аудио №2: English: 48 kHz, AC3 6 ch @ 384 kbps |Оригинал|
Аудио №3: Chinese: 48 kHz, AC3 6 ch @ 384 kbps |Оригинал|
Аудио №4: English: 48 kHz, AC3 2 ch @ 384 kbps |Оригинал|-

MediaInfo

Код:
Формат                           : Matroska
Версия формата                   : Version 1
Размер файла                     : 5,23 Гбайт
Продолжительность                : 1 ч. 47 м.
Общий поток                      : 6936 Кбит/сек
Дата кодирования                 : UTC 2009-04-22 11:27:35
Программа кодирования            : mkvmerge v2.3.0 ('Freak U') built on Sep  8 2008 18:32:16
Библиотека кодирования           : libebml v0.7.7 + libmatroska v0.8.1
Видео
Идентификатор                    : 1
Формат                           : AVC
Формат/Информация                : Advanced Video Codec
Профиль формата                  : [url=mailto:[email protected]][email protected][/url]
Параметр CABAC формата           : Да
Параметр ReFrames формата        : 8 кадров
Идентификатор кодека             : V_MPEG4/ISO/AVC
Продолжительность                : 1 ч. 47 м.
Битрейт                          : 5332 Кбит/сек
Ширина                           : 1280 пикселей
Высота                           : 720 пикселей
Соотношение сторон               : 16:9
Частота кадров                   : 23,976 кадра/сек
Цветовое пространство            : YUV
Субдискретизация насыщенности    : 4:2:0
Битовая глубина                  : 8 бит
Тип развёртки                    : Прогрессивная
Бит/(Пиксели*Кадры)              : 0.241
Размер потока                    : 3,92 Гбайт (75%)
Библиотека кодирования           : x264 core 67 r1139M 1024283
Настройки программы              : cabac=1 / ref=8 / deblock=1:0:0 / analyse=0x3:0x133 / me=hex / subme=6 / psy_rd=1.0:0.0 / mixed_ref=1 / me_range=16 / chroma_me=1 / trellis=1 / 8x8dct=1 / cqm=0 / deadzone=21,11 / chroma_qp_offset=-2 / threads=1 / nr=0 / decimate=1 / mbaff=0 / bframes=3 / b_pyramid=1 / b_adapt=1 / b_bias=0 / direct=1 / wpredb=1 / keyint=250 / keyint_min=25 / scenecut=40 / rc=2pass / bitrate=5332 / ratetol=1.0 / qcomp=0.60 / qpmin=10 / qpmax=51 / qpstep=4 / cplxblur=20.0 / qblur=0.5 / ip_ratio=1.40 / pb_ratio=1.30 / aq=1:1.00
Язык                             : English
Аудио #1
Идентификатор                    : 2
Формат                           : AC-3
Формат/Информация                : Audio Coding 3
Расширение режима                : CM (complete main)
Идентификатор кодека             : A_AC3
Продолжительность                : 1 ч. 47 м.
Вид битрейта                     : Постоянный
Битрейт                          : 448 Кбит/сек
Каналы                           : 6 каналов
Расположение каналов             : Front: L C R, Side: L R, LFE
Частота                          : 48,0 КГц
Битовая глубина                  : 16 бит
Метод сжатия                     : С потерями
Размер потока                    : 346 Мбайт (6%)
Заголовок                        : AC3 5.1
Язык                             : Russian
Аудио #2
Идентификатор                    : 3
Формат                           : AC-3
Формат/Информация                : Audio Coding 3
Расширение режима                : CM (complete main)
Идентификатор кодека             : A_AC3
Продолжительность                : 1 ч. 47 м.
Вид битрейта                     : Постоянный
Битрейт                          : 384 Кбит/сек
Каналы                           : 6 каналов
Расположение каналов             : Front: L C R, Side: L R, LFE
Частота                          : 48,0 КГц
Битовая глубина                  : 16 бит
Метод сжатия                     : С потерями
Размер потока                    : 297 Мбайт (6%)
Заголовок                        : AC3 5.1
Язык                             : English
Аудио #3
Идентификатор                    : 4
Формат                           : AC-3
Формат/Информация                : Audio Coding 3
Расширение режима                : CM (complete main)
Идентификатор кодека             : A_AC3
Продолжительность                : 1 ч. 47 м.
Вид битрейта                     : Постоянный
Битрейт                          : 384 Кбит/сек
Каналы                           : 6 каналов
Расположение каналов             : Front: L C R, Side: L R, LFE
Частота                          : 48,0 КГц
Битовая глубина                  : 16 бит
Метод сжатия                     : С потерями
Размер потока                    : 297 Мбайт (6%)
Заголовок                        : AC3 5.1
Язык                             : Chinese
Аудио #4
Идентификатор                    : 5
Формат                           : AC-3
Формат/Информация                : Audio Coding 3
Расширение режима                : CM (complete main)
Идентификатор кодека             : A_AC3
Продолжительность                : 1 ч. 47 м.
Вид битрейта                     : Постоянный
Битрейт                          : 384 Кбит/сек
Каналы                           : 2 канала
Расположение каналов             : Front: L R
Частота                          : 48,0 КГц
Битовая глубина                  : 16 бит
Метод сжатия                     : С потерями
Размер потока                    : 297 Мбайт (6%)
Заголовок                        : AC3 2.0
Язык                             : English
Скриншоты:
       
     
Вне форума [Профиль] [ЛС]
Показать сообщения:    
Ответить на тему

Текущее время: Сегодня 22:51

Часовой пояс: GMT + 3



Вы не можете начинать темы
Вы не можете отвечать на сообщения
Вы не можете редактировать свои сообщения
Вы не можете удалять свои сообщения
Вы не можете голосовать в опросах
Вы не можете прикреплять файлы к сообщениям
Вы не можете скачивать файлы