Сегодня идет свободное скачивание без начисления Download

Казанова Феллини / Il Casanova Di Federico Fellini (Федерико Феллини) [1976, драма, история, эротика, BDRip-AVC] MVO+AVO

Ответить на тему
 
Автор
Сообщение

O.S.A. ®

Пол:

Стаж: 3 года 1 месяц

Сообщений: 4520

Откуда: СССР

Торрент-статистика

Пост 11-Апр-2014 19:01

[Цитировать]

--Казанова Феллини / Il Casanova Di Federico Fellini-- Год выхода: 1976
Страна: Италия, США
Производство: Fast Film, Produzioni Europee Associati (PEA)
Жанр: драма, история, эротика
Продолжительность: 02:34:01
Перевод: Профессиональный (многоголосый) + Aвторский (одноголосый) [А. M. Михалев]-Режиссер: Федерико Феллини-В ролях: Дональд Сазерленд, Тина Омон, Сисели Браун, Кармен Скарпитта, Клара Альгранти, Даниэла Гатти, Маргарет Клементи, Олимпия Карлизи, Сильвана Фузаккья, Леда Лойодиче, Сандра Элейн Аллен, Кларисса Мэри Ролл, Даниэль Эмильфорк, Луиджи Дзербинатти, Дадли Саттон, Джон Карлсен...-О фильме: Созданная Федерико Феллини кинематографическая версия безумной жизни известного итальянского авантюриста XVIII столетия Джакомо Казановы, путешествующего по городам Европы и проповедующего бессмертную любовь. Среди множеств его любовниц - монахиня, горбатая нимфоманка и старая ведьма, которая убеждена в том, что секс с Казановой повлечет за собой ее превращение в мужчину. Экранизация по произведению: Джакомо Казанова.-- --Качество: BDRip-AVC
Формат: MKV
Видео кодек: H.264
Аудио кодек: AC3
Видео: 1024х554 (1.85:1), 24.000 fps, MPEG-4 AVC, ~3200 kbps avg, 0.235 bit/pixel
Аудио #1: [RUS] 48.0 kHz, AC3 Dolby Digital, 1.0 (C) ch, ~192.00 kbps avg || MVO R5 - KarmenVideo
Аудио #2: [RUS] 48.0 kHz, AC3 Dolby Digital, 2.0 (L,R) ch, ~192.00 kbps avg || AVO - А. M. Михалев
Аудио #3: [ENG] 48.0 kHz, AC3 Dolby Digital, 1.0 (C) ch, ~192.00 kbps avg
Аудио #4: [ITAL] 48.0 kHz, AC3 Dolby Digital, 1.0 (C) ch, ~192.00 kbps avg
Субтитры: русские (2 вида), английские (встроенные, отключаемые)
Дополнительно: Сохранены оригинальные чаптеры, как на Blu-Ray.--

Media Info

Общее
Уникальный идентификатор                 : 170663562800574266981162748736123135495
(0x80649B4A39C5212292D9D0113EB76607)
Полное имя                               : F:3Films FРелизыKazanova.Fellini.1976.x264.BDRip.AVC.MediaClub.mkv
Формат                                   : Matroska
Версия формата                           : Version 4 / Version 2
Размер файла                             : 4,27 Гбайт
Продолжительность                        : 2 ч. 34 м.
Общий поток                              : 3971 Кбит/сек
Название фильма                          : -= MediaClub =- rip by Lefevr
Дата кодирования                         : UTC 2014-04-06 11:27:08
Программа кодирования                    : mkvmerge v6.6.0 ('The Edge Of The In Between') built on Dec  1 2013
17:55:00
Библиотека кодирования                   : libebml v1.3.0 + libmatroska v1.4.1
Видео
Идентификатор                            : 1
Формат                                   : AVC
Формат/Информация                        : Advanced Video Codec
Профиль формата                          : [email protected]
Параметр CABAC формата                   : Да
Параметр ReFrames формата                : 9 кадров
Идентификатор кодека                     : V_MPEG4/ISO/AVC
Продолжительность                        : 2 ч. 34 м.
Битрейт                                  : 3200 Кбит/сек
Ширина                                   : 1024 пикселя
Высота                                   : 554 пикселя
Соотношение сторон                       : 1,85:1
Режим частоты кадров                     : Постоянный
Частота кадров                           : 24,000 кадра/сек
Цветовое пространство                    : YUV
Субдискретизация насыщенности            : 4:2:0
Битовая глубина                          : 8 бит
Тип развёртки                            : Прогрессивная
Бит/(Пиксели*Кадры)                      : 0.235
Размер потока                            : 3,36 Гбайт (79%)
Заголовок                                : Kazanova.Fellini.1976.x264.BDRip.AVC.MediaClub
Библиотека кодирования                   : x264 core 130 r2273 b3065e6
Настройки программы                      : cabac=1 / ref=9 / deblock=1:-3:-3 / analyse=0x3:0x133 / me=umh /
subme=11 / psy=1 / psy_rd=1.10:0.20 / mixed_ref=1 / me_range=32 / chroma_me=1 / trellis=2 / 8x8dct=1 / cqm=0 /
deadzone=21,11 / fast_pskip=0 / chroma_qp_offset=-3 / threads=6 / lookahead_threads=1 / sliced_threads=0 / nr=0 /
decimate=0 / interlaced=0 / bluray_compat=0 / constrained_intra=0 / bframes=8 / b_pyramid=2 / b_adapt=2 /
b_bias=0 / direct=3 / weightb=1 / open_gop=0 / weightp=2 / keyint=240 / keyint_min=23 / scenecut=40 /
intra_refresh=0 / rc=2pass / mbtree=0 / bitrate=3200 / ratetol=1.0 / qcomp=0.60 / qpmin=0 / qpmax=69 / qpstep=4 /
cplxblur=20.0 / qblur=0.5 / ip_ratio=1.40 / pb_ratio=1.30 / aq=1:1.00
Язык                                     : English
Default                                  : Да
Forced                                   : Нет
Аудио #1
Идентификатор                            : 2
Формат                                   : AC-3
Формат/Информация                        : Audio Coding 3
Расширение режима                        : CM (complete main)
Параметр Endianness формата              : Big
Идентификатор кодека                     : A_AC3
Продолжительность                        : 2 ч. 34 м.
Вид битрейта                             : Постоянный
Битрейт                                  : 192 Кбит/сек
Каналы                                   : 1 канал
Расположение каналов                     : Front: C
Частота                                  : 48,0 КГц
Битовая глубина                          : 16 бит
Метод сжатия                             : С потерями
Размер потока                            : 212 Мбайт (5%)
Заголовок                                : TRACK_01_MVO_RUS_R5_KarmenVideo
Язык                                     : Russian
Default                                  : Да
Forced                                   : Да
Аудио #2
Идентификатор                            : 3
Формат                                   : AC-3
Формат/Информация                        : Audio Coding 3
Расширение режима                        : CM (complete main)
Параметр Endianness формата              : Big
Идентификатор кодека                     : A_AC3
Продолжительность                        : 2 ч. 34 м.
Вид битрейта                             : Постоянный
Битрейт                                  : 192 Кбит/сек
Каналы                                   : 2 канала
Расположение каналов                     : Front: L R
Частота                                  : 48,0 КГц
Битовая глубина                          : 16 бит
Метод сжатия                             : С потерями
Размер потока                            : 212 Мбайт (5%)
Заголовок                                : TRACK_02_AVO_RUS_Mihalev
Язык                                     : Russian
Default                                  : Нет
Forced                                   : Нет
Аудио #3
Идентификатор                            : 4
Формат                                   : AC-3
Формат/Информация                        : Audio Coding 3
Расширение режима                        : CM (complete main)
Параметр Endianness формата              : Big
Идентификатор кодека                     : A_AC3
Продолжительность                        : 2 ч. 34 м.
Вид битрейта                             : Постоянный
Битрейт                                  : 192 Кбит/сек
Каналы                                   : 1 канал
Расположение каналов                     : Front: C
Частота                                  : 48,0 КГц
Битовая глубина                          : 16 бит
Метод сжатия                             : С потерями
Размер потока                            : 212 Мбайт (5%)
Заголовок                                : TRACK_03_ORIGINAL_ENG
Язык                                     : English
Default                                  : Нет
Forced                                   : Нет
Аудио #4
Идентификатор                            : 5
Формат                                   : AC-3
Формат/Информация                        : Audio Coding 3
Расширение режима                        : CM (complete main)
Параметр Endianness формата              : Big
Идентификатор кодека                     : A_AC3
Продолжительность                        : 2 ч. 34 м.
Вид битрейта                             : Постоянный
Битрейт                                  : 192 Кбит/сек
Каналы                                   : 1 канал
Расположение каналов                     : Front: C
Частота                                  : 48,0 КГц
Битовая глубина                          : 16 бит
Метод сжатия                             : С потерями
Размер потока                            : 212 Мбайт (5%)
Заголовок                                : TRACK_04_DUB_ITA
Язык                                     : Italian
Default                                  : Нет
Forced                                   : Нет
Текст #1
Идентификатор                            : 6
Формат                                   : UTF-8
Идентификатор кодека                     : S_TEXT/UTF8
Идентификатор кодека/Информация          : UTF-8 Plain Text
Заголовок                                : TEXT_01_SUB_RUS_R5_KarmenVideo
Язык                                     : Russian
Default                                  : Нет
Forced                                   : Нет
Текст #2
Идентификатор                            : 7
Формат                                   : UTF-8
Идентификатор кодека                     : S_TEXT/UTF8
Идентификатор кодека/Информация          : UTF-8 Plain Text
Заголовок                                : TEXT_02_SUB_RUS_ThePooh&Co
Язык                                     : Russian
Default                                  : Нет
Forced                                   : Нет
Текст #3
Идентификатор                            : 8
Формат                                   : UTF-8
Идентификатор кодека                     : S_TEXT/UTF8
Идентификатор кодека/Информация          : UTF-8 Plain Text
Заголовок                                : TEXT_03_SUB_ENG
Язык                                     : English
Default                                  : Нет
Forced                                   : Нет
Меню
00:00:00.000                             : en:Chapter 01
00:06:46.539                             : en:Chapter 02
00:22:32.875                             : en:Chapter 03
00:33:38.958                             : en:Chapter 04
00:43:55.875                             : en:Chapter 05
00:50:38.875                             : en:Chapter 06
00:54:38.208                             : en:Chapter 07
01:04:46.083                             : en:Chapter 08
01:09:25.625                             : en:Chapter 09
01:16:09.957                             : en:Chapter 10
01:30:28.000                             : en:Chapter 11
01:44:24.166                             : en:Chapter 12
01:52:00.750                             : en:Chapter 13
02:05:10.500                             : en:Chapter 14
02:18:38.208                             : en:Chapter 15

x264 log

x264 [info]: frame I:1376  Avg QP:16.37  size: 84758
x264 [info]: frame P:42695 Avg QP:18.62  size: 30526
x264 [info]: frame B:177721 Avg QP:20.30  size: 12811

Скриншоты

         
-- --

_________________

===============================
IGNOSCITO SAEPE ALTERI, NUNQUAM TIBI
Вне форума [Профиль] [ЛС]
Похожие темы
Форум Тема Автор Торрент Отв. Посл. сообщение
./templates/default/images/folder_dl.gif Разное Г.В. Носовский, А.Т. Фоменко | Чудо света на Руси под Казанью. Как было на самом деле [2013] [PDF] UndegraundMen
1 | 0

0 | 430

2

2013-08-28 23:02
UndegraundMen Последнее
./templates/default/images/folder_dl.gif Техническая и научно-популярная литература Сергей Кернбах | Сверхъестестественное. Научно доказанные факты (2015) [FB2] moralis
2 | 0

0 | 215

3

2016-03-15 23:11
moralis Последнее
Показать сообщения:    
Ответить на тему

Текущее время: Сегодня 17:39

Часовой пояс: GMT + 3



Вы не можете начинать темы
Вы не можете отвечать на сообщения
Вы не можете редактировать свои сообщения
Вы не можете удалять свои сообщения
Вы не можете голосовать в опросах
Вы не можете прикреплять файлы к сообщениям
Вы не можете скачивать файлы