Today is a free download without charge Download

VA - Radio 538 Hitzone 69 (2014) [FLAC|Lossless]<Top 40, Pop Compilation>

Reply to topic
 
Author
Message

Mad1966 ®

Longevity: 6 years 3 months

Posts: 29

Торрент-статистика

Post 20-Apr-2014 09:14

[Quote]

VA - Radio 538 Hitzone 69 (2014)- Год: 2014
Жанр: Top 40, Pop, Rock, Electronic, Ballad, Hip Hop, Electronic, Dance, Dancepop, Electro, Pop Rock, Alternative Rock, R&B, Soul, Hip Hop, Pop Rap
Лейбл: Sony Music Entertainment Netherlands B.V.
Номер по каталогу: 88843063252
Страна: Нидерланды
Продолжительность: 02:28:40
Тип рипа: image+.cue
Кодек: FLAC
Битрейт: Lossless
Наличие сканов в срдержимом раздачи: да (PNG, 12.6 Mb)

CD 1&#58;

Продолжительность: 01:13:28
Треклист:
01. Clean Bandit feat. Jess Glynne - Rather Be (3:50)
02. Katy Perry feat. Juicy J - Dark Horse (3:37)
03. George Ezra - Budapest (3:23)
04. Pharrell Williams - Marilyn Monroe (Radio Edit) (3:46)
05. Family Of The Year - Hero (3:12)
06. Faul & Wad Ad vs. Pnau - Changes (Radio Mix) (3:23)
07. Jacqueline Govaert - Simple Life (2:53)
08. Stromae - Tous les mêmes (3:33)
09. Imagine Dragons - Demons (2:58)
10. Cris Cab - Loves Me Not (3:38)
11. A Great Big World feat. Christina Aguilera - Say Something (3:51)
12. Dotan - Fall (3:29)
13. Jayh - Mooie Dag (2:27)
14. Oliver Heldens - Gecko (2:48)
15. Aloe Blacc - The Man (3:33)
16. Kid Ink feat. Chris Brown - Show Me (3:40)
17. Jeroen van der Boom - Nanana (3:02)
18. Blaudzun - Promises Of No Man's Land (3:35)
19. Ronnie Flex feat. Mr. Polska - Zusje (3:22)
20. Sam Smith - Money On My Mind (3:15)
21. Lorde - Team (3:15)
22. Armin van Buuren - Ping Pong (2:58)

Отчёт ЕАС&#58;

Код:
Exact Audio Copy V1.0 beta 3 from 29. August 2011
EAC extraction logfile from 17. April 2014, 16:42
- / 538 Hitzone 69 (CD1)
Used drive  : TSSTcorpCDDVDW SH-224DB   Adapter: 3  ID: 0
Read mode               : Secure
Utilize accurate stream : Yes
Defeat audio cache      : No
Make use of C2 pointers : Yes
Read offset correction                      : 6
Overread into Lead-In and Lead-Out          : No
Fill up missing offset samples with silence : Yes
Delete leading and trailing silent blocks   : No
Null samples used in CRC calculations       : Yes
Used interface                              : Installed external ASPI interface
Used output format : Internal WAV Routines
Sample format      : 44.100 Hz; 16 Bit; Stereo
TOC of the extracted CD
     Track |   Start  |  Length  | Start sector | End sector
    ---------------------------------------------------------
        1  |  0:00.00 |  3:49.42 |         0    |    17216
        2  |  3:49.42 |  3:36.71 |     17217    |    33487
        3  |  7:26.38 |  3:23.27 |     33488    |    48739
        4  | 10:49.65 |  3:46.27 |     48740    |    65716
        5  | 14:36.17 |  3:11.53 |     65717    |    80094
        6  | 17:47.70 |  3:22.44 |     80095    |    95288
        7  | 21:10.39 |  2:52.39 |     95289    |   108227
        8  | 24:03.03 |  3:33.03 |    108228    |   124205
        9  | 27:36.06 |  2:57.66 |    124206    |   137546
       10  | 30:33.72 |  3:38.21 |    137547    |   153917
       11  | 34:12.18 |  3:51.24 |    153918    |   171266
       12  | 38:03.42 |  3:29.27 |    171267    |   186968
       13  | 41:32.69 |  2:26.45 |    186969    |   197963
       14  | 43:59.39 |  2:48.07 |    197964    |   210570
       15  | 46:47.46 |  3:32.60 |    210571    |   226530
       16  | 50:20.31 |  3:39.63 |    226531    |   243018
       17  | 54:00.19 |  3:02.23 |    243019    |   256691
       18  | 57:02.42 |  3:35.08 |    256692    |   272824
       19  | 60:37.50 |  3:22.04 |    272825    |   287978
       20  | 63:59.54 |  3:14.73 |    287979    |   302601
       21  | 67:14.52 |  3:14.56 |    302602    |   317207
       22  | 70:29.33 |  2:58.05 |    317208    |   330562
Range status and errors
Selected range
     Filename F:\POST 2\538 Hitzone 69 (EAC)\CD1\538 Hitzone 69 (CD1).wav
     Peak level 96.6 %
     Extraction speed 10.3 X
     Range quality 99.9 %
     Test CRC 69416A11
     Copy CRC 69416A11
     Copy OK
No errors occurred
AccurateRip summary
Track  1  not present in database
Track  2  not present in database
Track  3  not present in database
Track  4  not present in database
Track  5  not present in database
Track  6  not present in database
Track  7  not present in database
Track  8  not present in database
Track  9  not present in database
Track 10  not present in database
Track 11  not present in database
Track 12  not present in database
Track 13  not present in database
Track 14  not present in database
Track 15  not present in database
Track 16  not present in database
Track 17  not present in database
Track 18  not present in database
Track 19  not present in database
Track 20  not present in database
Track 21  not present in database
Track 22  not present in database
None of the tracks are present in the AccurateRip database
End of status report

Отчёт auCDtect Task manager&#58;

Код:
PERFORMER: auCDtect Task Manager, ver. 1.6.0 RC1 build 1.6.0.1
Copyright (c) 2008-2010 y-soft. All rights reserved
http://y-soft.org
ANALYZER: auCDtect: CD records authenticity detector, version 0.8.2
Copyright (c) 2004 Oleg Berngardt. All rights reserved.
Copyright (c) 2004 Alexander Djourik. All rights reserved.
FILE: 538 Hitzone 69 (CD1).flac
  Size: 492510687 Hash: 6DBACDC01E902249DB40845C40D73082 Accuracy: -m0
  Conclusion: CDDA 99%
  Signature: 16FE8086F68278C4DEB2D3BB1D55585C7E0B0709

CD 2&#58;

Продолжительность: 01:15:12
Треклист:
01. Avicii - Addicted To You (2:29)
02. The Common Linnets - Calm After The Storm (3:06)
03. Jason Derulo - Trumpets (3:39)
04. American Authors - Best Day Of My Life (Single Version) (3:16)
05. David Guetta feat. Skylar Grey - Shot Me Down (3:13)
06. Anouk - You & I (3:53)
07. Afrojack feat. Wrabel - Ten Feet Tall (3:52)
08. Nielson - Kop in Het Zand (3:21)
09. Justin Timberlake - Not A Bad Thing (4:28)
10. Bastille - Laura Palmer (3:07)
11. Shakira - Dare (La La La) (3:08)
12. Chef'Special - In Your Arms (3:36)
13. Paloma Faith - Can't Rely On You (3:19)
14. The Neighbourhood - Sweater Weather (Radio Edit) (3:41)
15. Pitbull feat. G.R.L. - Wild Wild Love (3:24)
16. DI-RECT - Invincible (3:43)
17. The Chainsmokers - #SELFIE (3:06)
18. Maître Gims - Zombie (4:06)
19. Tube & Berger feat. Juliet Sikora - Come On Now (Set It Off) (3:06)
Bonus Tracks:
20. One Direction - Midnight Memories (2:57)
21. B-Brave - Als je van mij bent (3:18)
22. 5 Seconds Of Summer - She Looks So Perfect (3:23)

Отчёт ЕАС&#58;

Код:
Exact Audio Copy V1.0 beta 3 from 29. August 2011
EAC extraction logfile from 17. April 2014, 17:06
- / 538 Hitzone 69 (CD2)
Used drive  : TSSTcorpCDDVDW SH-224DB   Adapter: 3  ID: 0
Read mode               : Secure
Utilize accurate stream : Yes
Defeat audio cache      : No
Make use of C2 pointers : Yes
Read offset correction                      : 6
Overread into Lead-In and Lead-Out          : No
Fill up missing offset samples with silence : Yes
Delete leading and trailing silent blocks   : No
Null samples used in CRC calculations       : Yes
Used interface                              : Installed external ASPI interface
Used output format : Internal WAV Routines
Sample format      : 44.100 Hz; 16 Bit; Stereo
TOC of the extracted CD
     Track |   Start  |  Length  | Start sector | End sector
    ---------------------------------------------------------
        1  |  0:00.00 |  2:29.33 |         0    |    11207
        2  |  2:29.33 |  3:06.13 |     11208    |    25170
        3  |  5:35.46 |  3:39.09 |     25171    |    41604
        4  |  9:14.55 |  3:15.61 |     41605    |    56290
        5  | 12:30.41 |  3:12.72 |     56291    |    70762
        6  | 15:43.38 |  3:53.25 |     70763    |    88262
        7  | 19:36.63 |  3:51.74 |     88263    |   105661
        8  | 23:28.62 |  3:21.09 |    105662    |   120745
        9  | 26:49.71 |  4:28.08 |    120746    |   140853
       10  | 31:18.04 |  3:06.57 |    140854    |   154860
       11  | 34:24.61 |  3:08.12 |    154861    |   168972
       12  | 37:32.73 |  3:36.29 |    168973    |   185201
       13  | 41:09.27 |  3:18.64 |    185202    |   200115
       14  | 44:28.16 |  3:41.23 |    200116    |   216713
       15  | 48:09.39 |  3:24.02 |    216714    |   232015
       16  | 51:33.41 |  3:42.47 |    232016    |   248712
       17  | 55:16.13 |  3:05.66 |    248713    |   262653
       18  | 58:22.04 |  4:06.17 |    262654    |   281120
       19  | 62:28.21 |  3:05.63 |    281121    |   295058
       20  | 65:34.09 |  2:56.68 |    295059    |   308326
       21  | 68:31.02 |  3:18.23 |    308327    |   323199
       22  | 71:49.25 |  3:22.49 |    323200    |   338398
Range status and errors
Selected range
     Filename F:\POST 2\538 Hitzone 69 (EAC)\CD2\538 Hitzone 69 (CD2).wav
     Peak level 96.6 %
     Extraction speed 10.4 X
     Range quality 100.0 %
     Test CRC CD158E7C
     Copy CRC CD158E7C
     Copy OK
No errors occurred
AccurateRip summary
Track  1  not present in database
Track  2  not present in database
Track  3  not present in database
Track  4  not present in database
Track  5  not present in database
Track  6  not present in database
Track  7  not present in database
Track  8  not present in database
Track  9  not present in database
Track 10  not present in database
Track 11  not present in database
Track 12  not present in database
Track 13  not present in database
Track 14  not present in database
Track 15  not present in database
Track 16  not present in database
Track 17  not present in database
Track 18  not present in database
Track 19  not present in database
Track 20  not present in database
Track 21  not present in database
Track 22  not present in database
None of the tracks are present in the AccurateRip database
End of status report

Отчёт auCDtect Task manager&#58;

Код:
PERFORMER: auCDtect Task Manager, ver. 1.6.0 RC1 build 1.6.0.1
Copyright (c) 2008-2010 y-soft. All rights reserved
http://y-soft.org
ANALYZER: auCDtect: CD records authenticity detector, version 0.8.2
Copyright (c) 2004 Oleg Berngardt. All rights reserved.
Copyright (c) 2004 Alexander Djourik. All rights reserved.
FILE: 538 Hitzone 69 (CD2).flac
  Size: 518199869 Hash: 02C131E6EF3304804146C70292486716 Accuracy: -m0
  Conclusion: CDDA 100%
  Signature: D5501BA0881629999E15EBAAD12D90C20FC0D20D
Other forum [Profile] [PM]
Display posts from previous:    
Reply to topic

The time now is: Today 00:51

All times are GMT + 3 Hours



You cannot post new topics in this forum
You cannot reply to topics in this forum
You cannot edit your posts in this forum
You cannot delete your posts in this forum
You cannot vote in polls in this forum
You cannot attach files in this forum
You cannot download files in this forum