Сегодня идет свободное скачивание без начисления Download

Роб Рой / Rob Roy (Майкл Кейтон-Джонс / Michael Caton-Jones) [1995, Драма, военный, приключения, история, BDRip]

Ответить на тему
 
Автор
Сообщение

Omen ®

Стаж: 4 года 1 месяц

Сообщений: 194390

Торрент-статистика

Пост 23-Апр-2014 21:35

[Цитировать]

Роб Рой / Rob Roy -«Честь сделала его человеком. Храбрость сделала его героем. История сделала его Легендой»- Год выпуска: 1995
Жанр: боевик, приключения, биография
Описание фильма:
Зима на севере Шотландии очень сурова, и Роб Рой, чтобы обеспечить свой семейный клан, вынужден просить денег у не слишком благородного маркиза Монтерозского.
Однако, прихвостень маркиза коварно завладевает этими деньгами, и Роб Рой оказывается втянутым в самую опасную схватку в своей жизни.
Режиссер: Майкл Кейтон-Джонс / Michael Caton-Jones
Актеры: Лиам Нисон, Джессика Лэнг, Джон Хёрт, Тим Рот, Эрик Штольц, Эндрю Кир, Брайан Кокс, Брайан МакКарди, Гилберт Мартин, Вики Массон
Продолжительность: 02:19:17
Качество видео: BDRip
Перевод: Многоголосый закадровый
Автор перевода: Варус Видео

Дата мировой премьеры: 7 апреля 1995
Видеокодек: Xvid
Битрейт видео: ~1302 kbps
Размер кадра: 720x304
Аудиокодек: AC3 2.0
Битрейт аудио: 192 kbps

&

MI

Общее
Полное имя : D:\рипы\Rob.Roy.1996.BDRip.avi
Формат : AVI
Формат/Информация : Audio Video Interleave
Размер файла : 1,46 Гбайт
Продолжительность : 2 ч. 19 м.
Общий поток : 1504 Кбит/сек
Название фильма : Rob.Roy.1996.BDRip
Режиссёр : rip by maygli
Программа кодирования : VirtualDubModRus 1.5.10.2 (build 2542/release)
Правообладатель : ... (RG Rulya74)
Видео
Идентификатор : 0
Формат : MPEG-4 Visual
Профиль формата : Advanced [email protected]
Параметр BVOP формата : 1
Параметр QPel формата : Нет
Параметр GMC формата : Без точки перехода
Параметр матрицы формата : Выборочная
Идентификатор кодека : XVID
Идентификатор кодека/Подсказка : XviD
Продолжительность : 2 ч. 19 м.
Битрейт : 1302 Кбит/сек
Ширина : 720 пикселей
Высота : 304 пикселя
Соотношение сторон : 2,35:1
Частота кадров : 23,976 кадра/сек
Цветовое пространство : YUV
Субдискретизация насыщенности : 4:2:0
Битовая глубина : 8 бит
Тип развёртки : Прогрессивная
Метод сжатия : С потерями
Бит/(Пиксели*Кадры) : 0.248
Размер потока : 1,27 Гбайт (87%)
Библиотека кодирования : XviD 65
Аудио
Идентификатор : 1
Формат : AC-3
Формат/Информация : Audio Coding 3
Расширение режима : CM (complete main)
Параметр Endianness формата : Big
Идентификатор кодека : 2000
Продолжительность : 2 ч. 19 м.
Вид битрейта : Постоянный
Битрейт : 192 Кбит/сек
Каналы : 2 канала
Расположение каналов : Front: L R
Частота : 48,0 КГц
Битовая глубина : 16 бит
Метод сжатия : С потерями
Размер потока : 191 Мбайт (13%)
Выравнивание : Разделение по промежуткам
Продолжительность промежутка : 42 мс. (1,00 видеокадр)
Время предзагрузки промежутка : 500 мс.
Заголовок : Профессиональный (многоголосый закадровый) Варус Видео
Скриншоты:            
Вне форума [Профиль] [ЛС]
Показать сообщения:    
Ответить на тему

Текущее время: Сегодня 17:24

Часовой пояс: GMT + 3



Вы не можете начинать темы
Вы не можете отвечать на сообщения
Вы не можете редактировать свои сообщения
Вы не можете удалять свои сообщения
Вы не можете голосовать в опросах
Вы не можете прикреплять файлы к сообщениям
Вы не можете скачивать файлы