Сегодня идет свободное скачивание без начисления Download

Гринч - похититель Рождества / How the Grinch Stole Christmas (Рон Ховард / Ron Howard) [2000 г., фэнтези, комедия, семейный, BDRip-AVC] MVO (Карусель) + MVO (Премьер-Видео) + Original + Subs (rus, eng)

Ответить на тему
 
Автор
Сообщение

Koralina ®

Стаж: 5 лет 3 месяца

Сообщений: 1433

Откуда: Lithuania

Торрент-статистика

Пост 16-Дек-2011 12:25

[Цитировать]

Гринч - похититель Рождества / How the Grinch Stole Christmas-«All Whos beware: He's mean and green!» Год выпуска: 2000
Страна: США, Германия
Жанр: фэнтези, комедия, семейный
Продолжительность: 01:44:56
Перевод: профессиональный (многоголосый, закадровый)
Оригинальная аудиодорожка: английский
Русские субтитры: есть
Навигация по главам: есть
Режиссер: Рон Ховард / Ron Howard
В ролях: Джим Керри, Тейлор Момсен, Джефри Тэмбор, Кристин Барански, Билл Ирвин, Молли Шеннон, Клинт Ховард, Джош Райан Эванс, Мелинда Стерлинг, Рэйчел Уинфри
Описание:
Жил-был в городе Ктограде человечек, и звали его — Гринч. Был он весь зеленый и волосатый, никто его не любил.
Обиделся Гринч на ктовичей и ушел жить на одинокую, обдуваемую всеми ветрами гору.
Сидел там в своей пещере и злился на весь свет. Больше всего Гринч ненавидел Рождество.
В то время, как все население Ктограда веселилось от души, барометр и без того всегда плохого настроения Гринча показывал нечто ужасное.
Каждое Рождество становилось для зеленого отшельника страшной пыткой. И вот однажды злобный житель горы решил покончить с этим праздником раз и навсегда.
Пока беззаботные ктовичи сладко спали впредпраздничную ночь, вероломный Гринч решил украсть у горожан их Рождество.
Доп. информация: Kinopoisk.ru | IMDB | Sample 1 | Sample 2 | В сэмплы включены все аудиодорожки |
Качество: BDRip-AVC
Формат: MKV
Видео кодек: H.264
Аудио кодек: AC3
Видео: H.264, 1152x624, 23.976 fps, ~2878 kbps
Аудио 1: Русский: 48 kHz, AC3, 3/2 (L,C,R,l,r) + LFE ch, ~ 448.00 kbps |Многоголосый закадровый, Карусель#1|
Аудио 2: Русский: 48 kHz, AC3, 2/0 (L,R) ch, ~192.00 kbps avg |Многоголосый закадровый, Премьер-Видео|
Аудио 3: Английский: 48 kHz, AC3, 3/2 (L,C,R,l,r) + LFE ch, ~ 448.00 kbps
Формат субтитров: softsub (SRT) | русские(2 варианта), английские (SDH), английские
Отдельно:
Аудио 4: Русский: 48 kHz, AC3, 3/2 (L,C,R,l,r) + LFE ch, ~ 448.00 kbps |Многоголосый закадровый, Карусель#2|
Аудио 5: Русский: 48 kHz, AC3, 3/2 (L,C,R,l,r) + LFE ch, ~ 448.00 kbps |Одноголосый закадровый, Ю.Живов|

Дополнительно о фильме

  • Роль Гринча могли исполнить Джек Николсон и Эдди Мерфи.
  • Энтони Хопкинс записал весь закадровый текст к фильму за один день.
  • При работе над картиной потребовалось: применение работы гримеров — 8000 раз, бутафорских предметов — 300 штук, конфетных тростников — 1938 штук, мраморной крошки, используемой в качестве снега — 69 тонн, сценических костюмов — 443.
  • Каждый день Джиму Керри приходилось проводить около 3 часов в гримерке.
  • Как-то раз режиссер картины Рон Ховард пришел на съемочную площадку пораньше, нацепил на себя костюм Гринча, провел все те же 3 часа в гримерке и в таком виде проработал весь съемочный день.
  • Джим Керри, увидев своего «двойника», пришел в бешенство, по ошибке приняв режиссера за собственного дублера. Узнав, кто скрывается за гримом, Джим не смог сдержать эмоций и проникся огромным уважением к Рону.
  • Джим Керри возненавидел желтые контактные линзы, которые ему приходилось одевать во время съемок. Они были настолько неудобными, что некоторые сцены пришлось снимать без них, а уже позднее с помощью компьютерной графики глаза Джима приобретали соответствующий цвет.
  • Этот фильм стал самым кассовым в 2000 году, заработав в североамериканском прокате 260 миллионов долларов (было продано 50 миллионов билетов).

Скриншоты

                   

MediaInfo | x264

x264

x264 [info]: frame I:1222 Avg QP:16.73 size: 81077 PSNR Mean Y:48.09 U:50.97 V:51.67 Avg:48.88 Global:47.88
x264 [info]: frame P:30583 Avg QP:20.03 size: 29431 PSNR Mean Y:46.13 U:49.68 V:50.40 Avg:47.00 Global:45.69
x264 [info]: frame B:119154 Avg QP:22.25 size: 10625 PSNR Mean Y:44.81 U:48.98 V:49.90 Avg:45.81 Global:45.05
x264 [info]: consecutive B-frames: 1.0% 1.4% 3.5% 24.3% 12.9% 41.6% 6.0% 7.7% 1.8%
x264 [info]: mb I I16..4: 6.3% 82.5% 11.2%
x264 [info]: mb P I16..4: 2.0% 14.5% 1.2% P16..4: 40.0% 22.6% 11.2% 0.0% 0.0% skip: 8.5%
x264 [info]: mb B I16..4: 0.1% 1.3% 0.1% B16..8: 42.0% 10.8% 2.3% direct: 7.1% skip:36.2% L0:44.7% L1:44.6% BI:10.7%
x264 [info]: 8x8 transform intra:82.5% inter:71.6%
x264 [info]: direct mvs spatial:98.4% temporal:1.6%
x264 [info]: coded y,uvDC,uvAC intra: 84.3% 84.5% 53.6% inter: 28.3% 26.8% 2.9%
x264 [info]: i16 v,h,dc,p: 16% 11% 9% 64%
x264 [info]: i8 v,h,dc,ddl,ddr,vr,hd,vl,hu: 7% 7% 4% 11% 16% 15% 15% 12% 14%
x264 [info]: i4 v,h,dc,ddl,ddr,vr,hd,vl,hu: 6% 5% 2% 10% 18% 16% 16% 12% 14%
x264 [info]: i8c dc,h,v,p: 40% 21% 17% 22%
x264 [info]: Weighted P-Frames: Y:8.4% UV:4.5%
x264 [info]: ref P L0: 46.5% 8.5% 17.7% 8.4% 5.8% 4.2% 3.2% 2.0% 1.5% 1.2% 1.0% 0.1% 0.0%
x264 [info]: ref B L0: 74.6% 12.4% 5.3% 2.6% 1.8% 1.3% 1.0% 0.6% 0.3% 0.1%
x264 [info]: ref B L1: 93.6% 6.4%
x264 [info]: SSIM Mean Y:0.9799144 (16.971db)
x264 [info]: PSNR Mean Y:45.101 U:49.136 V:50.017 Avg:46.074 Global:45.188 kb/s:2878.12
General
UniqueID : 178542280770370037331696312456856847244 (0x8651FE13A8E9576287399B86A10DC38C)
Complete name : I:\Torrents\How the Grinch Stole Christmas SD\How.the.Grinch.Stole.Christmas.barm.mkv
Format : Matroska
File size : 2.91 GiB
Duration : 1h 44mn
Overall bit rate : 3 969 Kbps
Movie name : How the Grinch Stole Christmas 2000
Encoded date : UTC 2010-12-23 18:41:10
Writing application : mkvmerge v4.4.0 ('Die Wiederkehr') built on Oct 31 2010 21:52:48
Writing library : libebml v1.0.0 + libmatroska v1.0.0
Cover : Yes / Yes
Video
ID : 1
Format : AVC
Format/Info : Advanced Video Codec
Format profile : [email protected]
Format settings, CABAC : Yes
Format settings, ReFrames : 11 frames
Codec ID : V_MPEG4/ISO/AVC
Duration : 1h 44mn
Bit rate : 2 878 Kbps
Width : 1 152 pixels
Height : 624 pixels
Display aspect ratio : 16:9
Frame rate : 23.976 fps
Color space : YUV
Chroma subsampling : 4:2:0
Bit depth : 8 bits
Scan type : Progressive
Bits/(Pixel*Frame) : 0.167
Stream size : 2.05 GiB (71%)
Title : How the Grinch Stole Christmas
Writing library : x264 core 112 r1834 a51816a
Encoding settings : cabac=1 / ref=11 / deblock=1:-2:-1 / analyse=0x3:0x113 / me=umh / subme=10 / psy=1 / psy_rd=1.00:0.03 / mixed_ref=1 / me_range=32 /
chroma_me=1 / trellis=2 / 8x8dct=1 / cqm=0 / deadzone=21,11 / fast_pskip=1 / chroma_qp_offset=-3 / threads=6 / sliced_threads=0 / nr=0 / decimate=1 / interlaced=0 /
constrained_intra=0 / bframes=8 / b_pyramid=2 / b_adapt=2 / b_bias=0 / direct=3 / weightb=1 / open_gop=0 / weightp=2 / keyint=250 / keyint_min=23 / scenecut=40 /
intra_refresh=0 / rc_lookahead=60 / rc=2pass / mbtree=1 / bitrate=2878 / ratetol=1.0 / qcomp=0.65 / qpmin=0 / qpmax=51 / qpstep=4 / cplxblur=20.0 / qblur=0.5 /
vbv_maxrate=50000 / vbv_bufsize=62500 / ip_ratio=1.40 / aq=2:1.00 / zones=140729,150958,q=35 / nal_hrd=none
Language : English
Matrix coefficients : BT.709-5, BT.1361, IEC 61966-2-4 709, SMPTE RP177
Audio #1
ID : 2
Format : AC-3
Format/Info : Audio Coding 3
Mode extension : CM (complete main)
Codec ID : A_AC3
Duration : 1h 44mn
Bit rate mode : Constant
Bit rate : 448 Kbps
Channel(s) : 6 channels
Channel positions : Front: L C R, Side: L R, LFE
Sampling rate : 48.0 KHz
Bit depth : 16 bits
Compression mode : Lossy
Stream size : 336 MiB (11%)
Title : MVO Karuselj #1, 48 kHz, AC3, 3/2 (L,C,R,l,r) + LFE ch, ~ 448.00 kbps avg
Language : Russian
Audio #2
ID : 3
Format : AC-3
Format/Info : Audio Coding 3
Mode extension : CM (complete main)
Codec ID : A_AC3
Duration : 1h 44mn
Bit rate mode : Constant
Bit rate : 192 Kbps
Channel(s) : 2 channels
Channel positions : Front: L R
Sampling rate : 48.0 KHz
Bit depth : 16 bits
Compression mode : Lossy
Stream size : 144 MiB (5%)
Title : MVO Premjer-Video, 48 kHz, AC3, 2/0 (L,R) ch, ~192.00 kbps avg
Language : Russian
Audio #3
ID : 4
Format : AC-3
Format/Info : Audio Coding 3
Mode extension : CM (complete main)
Codec ID : A_AC3
Duration : 1h 44mn
Bit rate mode : Constant
Bit rate : 448 Kbps
Channel(s) : 6 channels
Channel positions : Front: L C R, Side: L R, LFE
Sampling rate : 48.0 KHz
Bit depth : 16 bits
Compression mode : Lossy
Stream size : 336 MiB (11%)
Title : Original, 48 kHz, AC3, 3/2 (L,C,R,l,r) + LFE ch, ~ 448.00 kbps avg
Language : English
Text #1
ID : 5
Format : UTF-8
Codec ID : S_TEXT/UTF8
Codec ID/Info : UTF-8 Plain Text
Title : #1
Language : Russian
Text #2
ID : 6
Format : UTF-8
Codec ID : S_TEXT/UTF8
Codec ID/Info : UTF-8 Plain Text
Title : #2, SDH
Language : Russian
Text #3
ID : 7
Format : UTF-8
Codec ID : S_TEXT/UTF8
Codec ID/Info : UTF-8 Plain Text
Title : SDH
Language : English
Text #4
ID : 8
Format : UTF-8
Codec ID : S_TEXT/UTF8
Codec ID/Info : UTF-8 Plain Text
Language : English
Menu
00:00:00.000 : en:1. A Whoville Christmas
00:03:38.383 : en:2. Meet the Grinch
00:10:26.791 : en:3. Cindy Lou's Savior
00:17:50.818 : en:4. Christmas, Why Can't I Find You?
00:19:21.951 : en:5. No Place Like Home
00:23:36.498 : en:6. The Grinch's Story
00:33:29.089 : en:7. Cindy Lou's Candidate
00:36:54.795 : en:8. The Invitation
00:44:05.434 : en:9. Second Thoughts
00:47:12.788 : en:10. The Holiday Cheermeister
00:52:58.215 : en:11. The Grinch's Revenge
00:59:39.117 : en:12. A Wonderful, Awful Idea
01:02:39.671 : en:13. You're a Mean One, Mr. Grinch
01:07:04.353 : en:14. Grinchy Claus
01:14:36.637 : en:15. To Take Every Present
01:18:12.354 : en:16. Christmas Destroyed
01:22:01.041 : en:17. A Change of Heart
01:27:18.064 : en:18. To Save Cindy Lou
01:30:21.622 : en:19. Merry Christmas, Mr. Grinch
01:37:52.448 : en:20. End Titles

_________________


Последний раз редактировалось: Koralina (2011-12-16 13:07), всего редактировалось 1 раз
Вне форума [Профиль] [ЛС]
Показать сообщения:    
Ответить на тему

Текущее время: Сегодня 08:54

Часовой пояс: GMT + 3



Вы не можете начинать темы
Вы не можете отвечать на сообщения
Вы не можете редактировать свои сообщения
Вы не можете удалять свои сообщения
Вы не можете голосовать в опросах
Вы не можете прикреплять файлы к сообщениям
Вы не можете скачивать файлы