Сегодня идет свободное скачивание без начисления Download

8 миллиметров / 8MM (Джоэл Шумахер / Joel Schumacher) [1999, США, Германия, триллер, криминал, детектив, WEB-DL 720p] Dub + MVO

Ответить на тему
 
Автор
Сообщение

Omen ®

Стаж: 4 года 1 месяц

Сообщений: 194390

Торрент-статистика

Пост 04-Май-2014 23:53

[Цитировать]

8 миллиметров / 8MM- Год выпуска: 1999
Страна: США, Германия
Жанр: триллер, криминал, детектив
Продолжительность: 02:03:16
Перевод: Профессиональный (полное дублирование) Видеосервис
+ Профессиональный (многоголосый, закадровый) Видеосервис
+ Одноголосый закадровый М.Яроцкий (Kyberpunk)
+ Авторский одноголосый Л.Володарский (НТВ+)
+ Авторский одноголосый В.Сонькин (Орион Видео)
Оригинальная звуковая дорожка: English
Субтитры: Russian (Forced), Russian, 2 х English, German-Режиссер: Джоэл Шумахер / Joel Schumacher
В ролях: Николас Кейдж, Хоакин Феникс, Джеймс Гандольфини, Петер Стормаре, Энтони Хилд, Кристофер Бауэр, Кэтрин Кинер, Мира Картер, Эми Мортон, Дженни Пауэлл
О фильме: Свет кинопроектора способен проникать в самые темные уголки человеческой души. На пленке, которая попала в руки частного детектива, запечатлена сцена зверского убийства молодой женщины. Он получает задание установить личность несчастной и выяснить, действительно ли было совершенно преступление. В стремительном мелькании страшных кадров сыщик безуспешно пытается различить лицо главного режиссера. Помимо своей воли детектив становится частью жестокого сценария, где ему отведена роль жертвы. В 8 миллиметрах от гибели любой неосторожный шаг может оказаться роковым…-Релиз: by shuriken331
Формат: MKV
Тип релиза: WEB-DL 720p
Видео: 1280x540 at 23.976 fps, MPEG-4 AVC, ~3902 kbps avg
Аудио #1: Russian: 48 kHz, AC3, 3/2 (L,C,R,l,r) + LFE ch, ~384.00 kbps avg |Дублированный, Видеосервис|
Аудио #2: Russian: 48 kHz, AC3, 3/2 (L,C,R,l,r) + LFE ch, ~384.00 kbps avg |Многоголосый закадровый, Видеосервис|
Аудио #3: Russian: 48 kHz, AC3, 3/2 (L,C,R,l,r) + LFE ch, ~384.00 kbps avg |Одноголосый закадровый, М. Яроцкий (Kyberpunk)|
Аудио #4: Russian: 48 kHz, AC3, 2/0 (L,R) ch, ~192.00 kbps avg |Одноголосый закадровый, Л. Володарский (НТВ+)|
Аудио #5: Russian: 48 kHz, AC3, 2/0 (L,R) ch, ~192.00 kbps avg |Одноголосый закадровый, В. Сонькин (Орион Видео)|
Аудио #6: English: 48 kHz, AC3, 3/2 (L,C,R,l,r) + LFE ch, ~384.00 kbps avg |Оригинал|
Аудио #7: English: 48 kHz, AC3, 2/0 (L,R) ch, ~192.00 kbps avg |Commentary by Joel Schumacher|
Семпл-

HDTVRip (720p) "Grimlen" HDTVRip (720p) "0ptimus" WEB-DL (720p) "ViGi"
-
mInfo
Формат : Matroska
Версия формата : Version 4 / Version 2
Размер файла : 5,28 Гбайт
Продолжительность : 2 ч. 3 м.
Общий поток : 6136 Кбит/сек
Название фильма : Release for HDCLUB by |◄◄| ιι |Alexandr 80| ► | ■ |►►|
Дата кодирования : UTC 2014-05-04 20:55:02
Программа кодирования : mkvmerge v6.1.0 ('Old Devil') built on Mar 2 2013 14:32:37
Библиотека кодирования : libebml v1.3.0 + libmatroska v1.4.0
Видео
Идентификатор : 1
Формат : AVC
Формат/Информация : Advanced Video Codec
Профиль формата : [email protected]
Параметр CABAC формата : Нет
Параметр ReFrames формата : 2 кадра
Параметр GOP формата : N=1
Идентификатор кодека : V_MPEG4/ISO/AVC
Продолжительность : 2 ч. 3 м.
Битрейт : 3902 Кбит/сек
Ширина : 1280 пикселей
Высота : 540 пикселей
Соотношение сторон : 2,40:1
Режим частоты кадров : Постоянный
Частота кадров : 23,976 кадра/сек
Цветовое пространство : YUV
Субдискретизация насыщенности : 4:2:0
Битовая глубина : 8 бит
Тип развёртки : Прогрессивная
Бит/(Пиксели*Кадры) : 0.235
Размер потока : 3,36 Гбайт (64%)
Заголовок : 8MM (1999)
Язык : English
Default : Да
Forced : Нет
Основные цвета : BT.709
Характеристики трансфера : BT.709
Коэффициенты матрицы : BT.709
Аудио #1
Идентификатор : 2
Формат : AC-3
Формат/Информация : Audio Coding 3
Расширение режима : CM (complete main)
Параметр Endianness формата : Big
Идентификатор кодека : A_AC3
Продолжительность : 2 ч. 3 м.
Вид битрейта : Постоянный
Битрейт : 384 Кбит/сек
Каналы : 6 каналов
Расположение каналов : Front: L C R, Side: L R, LFE
Частота : 48,0 КГц
Битовая глубина : 16 бит
Метод сжатия : С потерями
Размер потока : 339 Мбайт (6%)
Заголовок : Дублированный (R5 - Видеосервис)
Язык : Russian
Default : Да
Forced : Нет
Аудио #2
Идентификатор : 3
Формат : AC-3
Формат/Информация : Audio Coding 3
Расширение режима : CM (complete main)
Параметр Endianness формата : Big
Идентификатор кодека : A_AC3
Продолжительность : 2 ч. 3 м.
Вид битрейта : Постоянный
Битрейт : 384 Кбит/сек
Каналы : 6 каналов
Расположение каналов : Front: L C R, Side: L R, LFE
Частота : 48,0 КГц
Битовая глубина : 16 бит
Метод сжатия : С потерями
Размер потока : 339 Мбайт (6%)
Заголовок : Профессиональный многоголосый (R5 - Видеосервис)
Язык : Russian
Default : Нет
Forced : Нет
Аудио #3
Идентификатор : 4
Формат : AC-3
Формат/Информация : Audio Coding 3
Расширение режима : CM (complete main)
Параметр Endianness формата : Big
Идентификатор кодека : A_AC3
Продолжительность : 2 ч. 3 м.
Вид битрейта : Постоянный
Битрейт : 384 Кбит/сек
Каналы : 6 каналов
Расположение каналов : Front: L C R, Side: L R, LFE
Частота : 48,0 КГц
Битовая глубина : 16 бит
Метод сжатия : С потерями
Размер потока : 339 Мбайт (6%)
Заголовок : Авторский одноголосый - Михаил Яроцкий (Kyberpunk)
Язык : Russian
Default : Нет
Forced : Нет
Аудио #4
Идентификатор : 5
Формат : AC-3
Формат/Информация : Audio Coding 3
Расширение режима : CM (complete main)
Параметр Endianness формата : Big
Идентификатор кодека : A_AC3
Продолжительность : 2 ч. 3 м.
Вид битрейта : Постоянный
Битрейт : 192 Кбит/сек
Каналы : 2 канала
Расположение каналов : Front: L R
Частота : 48,0 КГц
Битовая глубина : 16 бит
Метод сжатия : С потерями
Размер потока : 169 Мбайт (3%)
Заголовок : Авторский одноголосый - Леонид Володарский (НТВ+)
Язык : Russian
Default : Нет
Forced : Нет
Аудио #5
Идентификатор : 6
Формат : AC-3
Формат/Информация : Audio Coding 3
Расширение режима : CM (complete main)
Параметр Endianness формата : Big
Идентификатор кодека : A_AC3
Продолжительность : 2 ч. 3 м.
Вид битрейта : Постоянный
Битрейт : 192 Кбит/сек
Каналы : 2 канала
Расположение каналов : Front: L R
Частота : 48,0 КГц
Битовая глубина : 16 бит
Метод сжатия : С потерями
Размер потока : 169 Мбайт (3%)
Заголовок : Авторский одноголосый - Виктор Сонькин (Орион Видео)
Язык : Russian
Default : Нет
Forced : Нет
Аудио #6
Идентификатор : 7
Формат : AC-3
Формат/Информация : Audio Coding 3
Расширение режима : CM (complete main)
Параметр Endianness формата : Big
Идентификатор кодека : A_AC3
Продолжительность : 2 ч. 3 м.
Вид битрейта : Постоянный
Битрейт : 384 Кбит/сек
Каналы : 6 каналов
Расположение каналов : Front: L C R, Side: L R, LFE
Частота : 48,0 КГц
Битовая глубина : 16 бит
Метод сжатия : С потерями
Размер потока : 339 Мбайт (6%)
Заголовок : Original
Язык : English
Default : Нет
Forced : Нет
Аудио #7
Идентификатор : 8
Формат : AC-3
Формат/Информация : Audio Coding 3
Расширение режима : CM (complete main)
Параметр Endianness формата : Big
Идентификатор кодека : A_AC3
Продолжительность : 2 ч. 3 м.
Вид битрейта : Постоянный
Битрейт : 192 Кбит/сек
Каналы : 2 канала
Расположение каналов : Front: L R
Частота : 48,0 КГц
Битовая глубина : 16 бит
Метод сжатия : С потерями
Размер потока : 169 Мбайт (3%)
Заголовок : Commentary by Joel Schumacher
Язык : Russian
Default : Нет
Forced : Нет
Текст #1
Идентификатор : 9
Формат : UTF-8
Идентификатор кодека : S_TEXT/UTF8
Идентификатор кодека/Информация : UTF-8 Plain Text
Заголовок : Forced
Язык : Russian
Default : Да
Forced : Нет
Текст #2
Идентификатор : 10
Формат : UTF-8
Идентификатор кодека : S_TEXT/UTF8
Идентификатор кодека/Информация : UTF-8 Plain Text
Заголовок : Full (DVD R5)
Язык : Russian
Default : Нет
Forced : Нет
Текст #3
Идентификатор : 11
Формат : UTF-8
Идентификатор кодека : S_TEXT/UTF8
Идентификатор кодека/Информация : UTF-8 Plain Text
Заголовок : Full #1
Язык : English
Default : Нет
Forced : Нет
Текст #4
Идентификатор : 12
Формат : UTF-8
Идентификатор кодека : S_TEXT/UTF8
Идентификатор кодека/Информация : UTF-8 Plain Text
Заголовок : Full #2
Язык : English
Default : Нет
Forced : Нет
Текст #5
Идентификатор : 13
Формат : UTF-8
Идентификатор кодека : S_TEXT/UTF8
Идентификатор кодека/Информация : UTF-8 Plain Text
Заголовок : Full
Язык : German
Default : Нет
Forced : Нет
Меню
00:00:00.000 : en:1
00:10:36.000 : en:2
00:18:11.000 : en:3
00:23:30.000 : en:4
00:28:15.000 : en:5
00:33:48.000 : en:6
00:40:35.000 : en:7
00:43:51.000 : en:8
00:52:36.000 : en:9
00:59:57.000 : en:10
01:09:18.000 : en:11
01:16:16.000 : en:12
01:19:12.000 : en:13
01:23:34.000 : en:14
01:30:13.000 : en:15
01:41:11.000 : en:16
-
Вне форума [Профиль] [ЛС]
Показать сообщения:    
Ответить на тему

Текущее время: Сегодня 08:55

Часовой пояс: GMT + 3



Вы не можете начинать темы
Вы не можете отвечать на сообщения
Вы не можете редактировать свои сообщения
Вы не можете удалять свои сообщения
Вы не можете голосовать в опросах
Вы не можете прикреплять файлы к сообщениям
Вы не можете скачивать файлы