Сегодня идет свободное скачивание без начисления Download

Ванесса / Vanessa (Хуберт Франк / Hubert Frank) [1977, Драма, Эротика, DVDRip] VO

Ответить на тему
 
Автор
Сообщение

Omen ®

Стаж: 4 года 1 месяц

Сообщений: 194390

Торрент-статистика

Пост 05-Май-2014 21:41

[Цитировать]

Ванесса / Vanessa - Год выпуска: 1977
Производство: Германия (ФРГ)
Жанр: Драма, Эротика
Описание фильма:
История жизни девушки, которая из простой школьницы превратилась в игрушку для удовлетворения сексуальных потребностей. Очаровательная и возбуждающая героиня оказывается в одном из публичных домов Гонконга, куда она попадает из женского монастыря. По пути она испытывает много сексуальных приключений...
Режиссер: Хуберт Франк / Hubert Frank
Актеры: Оливия Паскаль, Антон Диффринг, Уши Цех, Гюнтер Клеменс, Ева Иден, Генри Хеллер, Эва Люце, Астрид Бонер, Гизела Краусс, Питер М. Крюгер
Продолжительность: 01:31:51
Качество видео: DVDRip
Перевод: Одноголосый закадровый, любительский

Дата мировой премьеры: 11 марта 1977
Видеокодек: DivX 5
Битрейт видео: ~2078 kb/s
Размер кадра: 720x416
Аудиокодек: AC3 2.0
Битрейт аудио: 192 kb/s
Сэмпл: Ссылка

Рейтинг R:

Рейтинг R - Детям до 17 лет обязательно присутствие родителей.
Рейтинг R получают фильмы, в содержании которых обязательно содержится материал, предназначенный только для взрослой аудитории. Родителям рекомендуется хорошо подумать, прежде чем посмотреть такой фильм вместе со своими детьми.
Фильм, получивший рейтинг R, может содержать сексуальные сцены, эпизоды с употреблением наркотиков, нецензурную брань, фрагменты с насилием и т.д.

MediaInfo:

Общее
Полное имя : C:Торренты\Ванесса.1977.DVDRip.avi
Формат : AVI
Формат/Информация : Audio Video Interleave
Размер файла : 1,46 Гбайт
Продолжительность : 1 ч. 31 м.
Общий поток : 2279 Кбит/сек
Программа кодирования : VirtualDubMod 1.5.10.3 (build 2550/release)
Библиотека кодирования : VirtualDubMod build 2550/release
Видео
Идентификатор : 0
Формат : MPEG-4 Visual
Профиль формата : Advanced [email protected]
Параметр BVOP формата : 1
Параметр QPel формата : Нет
Параметр GMC формата : Без точки перехода
Параметр матрицы формата : Default (MPEG)
Идентификатор кодека : DX50
Идентификатор кодека/Подсказка : DivX 5
Продолжительность : 1 ч. 31 м.
Битрейт : 2078 Кбит/сек
Ширина : 720 пикселей
Высота : 416 пикселей
Соотношение сторон : 1,731
Частота кадров : 23,976 кадра/сек
Цветовое пространство : YUV
Субдискретизация насыщенности : 4:2:0
Битовая глубина : 8 бит
Тип развёртки : Прогрессивная
Метод сжатия : С потерями
Бит/(Пиксели*Кадры) : 0.289
Размер потока : 1,33 Гбайт (91%)
Библиотека кодирования : XviD 1.2.1 (UTC 2008-12-04)
Аудио
Идентификатор : 1
Формат : AC-3
Формат/Информация : Audio Coding 3
Расширение режима : CM (complete main)
Параметр Endianness формата : Big
Идентификатор кодека : 2000
Продолжительность : 1 ч. 31 м.
Вид битрейта : Постоянный
Битрейт : 192 Кбит/сек
Каналы : 2 канала
Расположение каналов : Front: L R
Частота : 48,0 КГц
Битовая глубина : 16 бит
Метод сжатия : С потерями
Размер потока : 126 Мбайт (8%)
Выравнивание : Разделение по промежуткам
Продолжительность промежутка : 42 мс. (1,00 видеокадр)
Время предзагрузки промежутка : 500 мс.
Скриншоты:          
Вне форума [Профиль] [ЛС]
Показать сообщения:    
Ответить на тему

Текущее время: Сегодня 08:56

Часовой пояс: GMT + 3



Вы не можете начинать темы
Вы не можете отвечать на сообщения
Вы не можете редактировать свои сообщения
Вы не можете удалять свои сообщения
Вы не можете голосовать в опросах
Вы не можете прикреплять файлы к сообщениям
Вы не можете скачивать файлы