Today is a free download without charge Download

Киноконцерт, посвященный дню Победы (2013) DVDRip

Reply to topic
 
Author
Message

Omen ®

Longevity: 7 years 1 month

Posts: 181090

Торрент-статистика

Post 09-May-2014 10:49

[Quote]

Киноконцерт, посвященный дню Победы -С Праздником - Днем Победы! Год выпуска: 2013
Жанр: Короткометражный
Описание фильма:
В киноконцерте использованы музыка и песни из фильмов:
- В бой идут одни старики;
- Нормандия-Неман;
- Жажда;
- На войне как на войне;
- Звезда;
- Два бойца;
- За тех кто в море!
- На семи ветрах;
- Друзья и годы;
- Небесный тихоход;
- На дорогах войны;
- …а зори здесь тихие;
- Добровольцы;
- Прощай;
- Хроника пикирующего бомбардировщика.
Режиссер: Леонид Быков, Жан Древиль, Виктор Трегубович, Александр Файнциммер и др.
Актеры: Леонид Быков, Николай Рыбников, Михаил Кононов, Олег Борисов, Федор Одиноков, Виктор Павлов, Николай Крючков, Вячеслав Тихонов и др.
Продолжительность: 00:38:17
Качество видео: DVDRip
Видеокодек: Xvid
Битрейт видео: ~1642 kbps
Размер кадра: 688x512
Аудиокодек: MP3
Битрейт аудио: 128 kbps

MediaInfo:

Полное имя : E:\Музыка\Песни о ВОВ\Киноконцерт\Киноконцерт.avi
Формат : AVI
Формат/Информация : Audio Video Interleave
Размер файла : 508 Мбайт
Продолжительность : 38 м.
Общий поток : 1857 Кбит/сек
TCOD : 0
TCDO : 22970400000
Видео
Идентификатор : 0
Формат : MPEG-4 Visual
Профиль формата : Advanced [email protected]
Параметр BVOP формата : 2
Параметр QPel формата : Нет
Параметр GMC формата : Без точки перехода
Параметр матрицы формата : Default (H.263)
Режим смешивания : Сжатый битовый поток
Идентификатор кодека : XVID
Идентификатор кодека/Подсказка : XviD
Продолжительность : 38 м.
Битрейт : 1642 Кбит/сек
Ширина : 688 пикселей
Высота : 512 пикселей
Соотношение сторон : 4:3
Частота кадров : 25,000 кадров/сек
Цветовое пространство : YUV
Субдискретизация насыщенности : 4:2:0
Битовая глубина : 8 бит
Тип развёртки : Прогрессивная
Метод сжатия : С потерями
Бит/(Пиксели*Кадры) : 0.186
Размер потока : 450 Мбайт (88%)
Библиотека кодирования : XviD 64
Аудио
Идентификатор : 1
Формат : MPEG Audio
Версия формата : Version 1
Профиль формата : Layer 3
Режим : Joint stereo
Идентификатор кодека : 55
Идентификатор кодека/Подсказка : MP3
Продолжительность : 38 м.
Вид битрейта : Постоянный
Битрейт : 128 Кбит/сек
Каналы : 2 канала
Частота : 48,0 КГц
Метод сжатия : С потерями
Размер потока : 35,1 Мбайт (7%)
Выравнивание : Соединение по промежуткам
Продолжительность промежутка : 250 мс. (6,25 видеокадров)
Время предзагрузки промежутка : 192 мс.
Скриншоты:        
Other forum [Profile] [PM]
Display posts from previous:    
Reply to topic

The time now is: Today 00:48

All times are GMT + 3 Hours



You cannot post new topics in this forum
You cannot reply to topics in this forum
You cannot edit your posts in this forum
You cannot delete your posts in this forum
You cannot vote in polls in this forum
You cannot attach files in this forum
You cannot download files in this forum