Сегодня идет свободное скачивание без начисления Download

Нож в воде / Knife in the water / Nóz w wodzie (Роман Полански / Roman Polanski) [1962, Польша, драма, WEB-DL 720p] AVO (Иванов) + MVO + Sub Rus, Eng + Original Polish

Ответить на тему
 
Автор
Сообщение

Omen ®

Стаж: 4 года 1 месяц

Сообщений: 194394

Торрент-статистика

Пост 18-Май-2014 23:02

[Цитировать]

Нож в воде / Knife in the water
Страна: Польша
Студия: Zespol Filmowy "Kamera"
Жанр: драма
Год выпуска: 1962
Продолжительность: 01:34:34
Перевод 1: Авторский (одноголосый закадровый) МИХАИЛ ИВАНОВ
Перевод 2: Профессиональный (многоголосый закадровый)
Cубтитры: русские, английские
Оригинальная аудиодорожка: польский
Режиссер: Роман Полански / Roman Polanski
В ролях: Якуб Гольдберг /Jakub Goldberg/, Зигмунт Маланович /Zygmunt Malanowicz/, Йоланта Умечка /Jolanta Umecka/, Леон Немчик /Leon Niemczyk/
Описание: Первый художественный фильм Романа Полянского сразу же утвердил его как кинематографиста, с которым надо считаться. Он выиграл высшие награды на МКФ в Венеции, "Оскарную" номинацию за лучший иностранный фильм и появился на обложке журнала "Time" во время первого Нью-Йоркского кинофестиваля. Интерес режиссера к человеческой жестокости и насилию, который будет темой почти всей его карьеры, уже заметен, так как он исследует сложные и напряженные взаимоотношения между близкими родственниками.
Когда Анджей (Немчик), преуспевающий спортивный журналист, находящийся в отпуске со своей женой Кристиной (Умечка), подсаживает попутчика (Маланович), супруги просят молодого человека (весь фильм его ни разу не назвали по имени) присоединиться к прогулке на яхте. Завидуя молодости и внешности светловолосого парня и немного ревнуя, Анджей хвастает своей физической ловкостью, подчеркивая неопытность своего гостя в море. Напряжение между двумя мужчинами нарастает, когда появляется карманный нож, представляющий особые умения попутчика и предполагающий в будущем насилие и секс. Со временем "ружье выстрелит".
Снятый в черно-белом изображении, фильм сделан уверенно, точно, а говорит характеристиками персонажей. "Нож в воде" также значителен в карьере другого польского кинематографиста, соавтора сценария Ежи Сколимовского, который тогда уже начал снимать, но появился на международной арене только в 1982 году с фильмом "Работа по совместительству" (Moonlighting). Многие утверждают, что "Нож в воде" интереснее всех фильмов, что Полянский снял на Западе, покинув Родину. В то время прекрасно рассказанный и сыгранный фильм, с мрачным и своеобразным стилем казался очень и очень свежим. (Иванов М.)
--------------------------------------------------
Оператор: Ежи Липман /Jerzy Lipman/
Сценарист: Ежи Сколимовский /Jerzy Skolimowski/, Роман Полански /Roman Polanski/
Продюсер: Станислав Зилевич /Stanislaw Zylewicz/
Композитор: Кшиштоф Комеда /Krzysztof Komeda/
--------------------------------------------------

Награды

Награды:
"
Оскар, 1962год
"
Номинации:
* 1964 — Премия «Оскар» за лучший иностранный фильм (Польша)
* 1962 — Премия «Золотой лев» Венецианского кинофестиваля
* 1964 — Премия «BAFTA» за лучший фильм (Польша)
* 1962 — Премия ФИПРЕССИ (Роман Полански)
--------------------------------------------------
КИНОПОИСК. RU
РЕЙТИНГ 7.641 оценки: 1584
7,6/10 from 12 161 users users
--------------------------------------------------
Доп. информация: Видеоряд >>> Knife in the Water 1962 720p WEB DL H264 brento .
Многоголосый закадровый и польский отсюда >>> DVD5 - cпасибо camel
--------------------------------------------------
СЭМПЛ
--------------------------------------------------
Примечание: Скорость маленькая 50 kb/c, но раздаю круглосуточно.
--------------------------------------------------
Тип релиза: WEB-DL 720p
Контейнер: MKV
Видео: 970x720; 23.976 fps; ~ 3 872 Kbps; 0.231 Bits/Pixel
Аудио 1: Russian - 48 kHz, AC3 Dolby Digital, 2/0 (L,R) 2ch, ~192 kbps - Михаил Иванов
Аудио 2: Russian - 48 kHz, AC3 Dolby Digital, 2/0 (L,R) 2ch, ~ 224 kbps - МVO
Аудио 3: Polish - 48 kHz, AC3 Dolby Digital, 2/0 (L,R) 2ch, ~ 224 kbps - Original
Формат субтитров: Russian (*UTF-8), English - неотключаемые

MediaInfo

General
Complete name : F:\EXCLUZIVE=19\НОЖ В ВОДЕ=KNIFE IN THE WATER 1962\Knife in the Water 1962\Knife in the Water 1962 720p WEB-DL.mkv
Format : Matroska
File size : 3.04 GiB
Duration : 1h 34mn
Overall bit rate : 4 604 Kbps
Encoded date : UTC 2014-05-19 04:22:40
Writing application : mkvmerge v3.3.0 ('Language') built on Mar 24 2010 14:59:24
Writing library : libebml v0.8.0 + libmatroska v0.9.0
Video
ID : 1
Format : AVC
Format/Info : Advanced Video Codec
Format profile : [email protected]
Format settings, CABAC : No
Format settings, ReFrames : 2 frames
Muxing mode : Container [email protected]
Codec ID : V_MPEG4/ISO/AVC
Duration : 1h 34mn
Bit rate : 3 872 Kbps
Width : 970 pixels
Height : 720 pixels
Display aspect ratio : 4:3
Frame rate : 23.976 fps
Color space : YUV
Chroma subsampling : 4:2:0
Bit depth : 8 bits
Scan type : Progressive
Bits/(Pixel*Frame) : 0.231
Stream size : 2.56 GiB (84%)
Title : Knife in the Water 1962
Language : English
Color primaries : BT.709-5, BT.1361, IEC 61966-2-4, SMPTE RP177
Transfer characteristics : BT.709-5, BT.1361
Matrix coefficients : BT.709-5, BT.1361, IEC 61966-2-4 709, SMPTE RP177
Audio #1
ID : 2
Format : AC-3
Format/Info : Audio Coding 3
Mode extension : CM (complete main)
Codec ID : A_AC3
Duration : 1h 34mn
Bit rate mode : Constant
Bit rate : 192 Kbps
Channel(s) : 2 channels
Channel positions : Front: L R
Sampling rate : 48.0 KHz
Stream size : 130 MiB (4%)
Title : AVO Иванов @ AC3 2ch. 192 kbps
Language : Russian
Audio #2
ID : 3
Format : AC-3
Format/Info : Audio Coding 3
Mode extension : CM (complete main)
Codec ID : A_AC3
Duration : 1h 34mn
Bit rate mode : Constant
Bit rate : 224 Kbps
Channel(s) : 2 channels
Channel positions : Front: L R
Sampling rate : 48.0 KHz
Stream size : 152 MiB (5%)
Title : MVO @ AC3 2ch. 224 kbps
Language : Russian
Audio #3
ID : 4
Format : AC-3
Format/Info : Audio Coding 3
Mode extension : CM (complete main)
Codec ID : A_AC3
Duration : 1h 34mn
Bit rate mode : Constant
Bit rate : 224 Kbps
Channel(s) : 2 channels
Channel positions : Front: L R
Sampling rate : 48.0 KHz
Stream size : 152 MiB (5%)
Title : Original @ AC3 2ch. 224 kbps
Language : Polish
Text
ID : 5
Format : UTF-8
Codec ID : S_TEXT/UTF8
Codec ID/Info : UTF-8 Plain Text
Title : (* UTF-8)
Language : Russian
Menu
00:00:00.000 : en:The Hitchhiker
00:07:41.000 : en:The Dock
00:15:26.000 : en:"Are We Moving?"
00:21:46.000 : en:The Reeds
00:24:19.000 : en:Noon
00:30:50.000 : en:Lunch
00:35:54.000 : en:In Circles
00:41:17.000 : en:Sailing
00:47:35.000 : en:Aground
00:50:55.000 : en:Forfeit
01:02:38.000 : en:Light Sleepers
01:10:22.000 : en:Overboard
01:17:03.000 : en:"You're Just Like Him"
01:26:09.000 : en:"Where Are We Going?"

Скриншоты

, ,
, ,
, ,
Мои раздачи фильмов в Авторском переводе
Вне форума [Профиль] [ЛС]

Dracula

Стаж: 3 года 1 месяц

Сообщений: 9854

Торрент-статистика

Пост 19-Май-2014 17:23 (спустя 18 часов)

Топик был перенесен из форума Зарубежное кино (HD Video) в форум Фильмы до 2000 года


Геннадич
 
Показать сообщения:    
Ответить на тему

Текущее время: Сегодня 13:12

Часовой пояс: GMT + 3



Вы не можете начинать темы
Вы не можете отвечать на сообщения
Вы не можете редактировать свои сообщения
Вы не можете удалять свои сообщения
Вы не можете голосовать в опросах
Вы не можете прикреплять файлы к сообщениям
Вы не можете скачивать файлы