Сегодня идет свободное скачивание без начисления Download

Империя Чувств / Коррида любви / Ai no corrida (Нагиса Осима) [1976, драма, история, эротика, BDRip-AVC] (DVOx2) + AVO

Ответить на тему
 
Автор
Сообщение

O.S.A. ®

Пол:

Стаж: 3 года 1 месяц

Сообщений: 4520

Откуда: СССР

Торрент-статистика

Пост 21-Май-2014 18:17

[Цитировать]

--Империя Чувств / Коррида любви / Ai no corrida-- Год выпуска: 1976
Страна: Япония, Франция
Производство: Argos Films, Oshima Productions, Shibata Organisation Inc.
Жанр: драма, история, эротика
Продолжительность: 01:58:01
Перевод: Профессиональный [(двухголосый)х2] + Авторский (одноголосый) [Ю. Сербин]-Режиссер: Нагиса Осима-В ролях: Тацуя Фудзи, Эйко Мацуда, Аои Накодзима, Ясуко Мацуи, Мэйка Сэри, Канаэ Кобаяси, Тайдзи Тонояма, Киёдзи Коконоэ, Наоми Шираиши, Комикити Хори...-Описание: Пожалуй, одна из самых эротичных и в то же время непостижимо глубоких драм о всепожирающей, выходящей из под контроля плотской страсти между молодой японкой Садой и ее хозяином, которого она в конце убивает, отрезав ему пенис. Самое интересное, что основан фильм на реальных событиях.
Четыре дня ходила Сада с отрезанным пенисом по улицам Токио, а когда ее арестовали, она сияла от счастья. Суд над ней потряс всю Японию, к ней проявили снисхождение, и она была оправдана, получив странную популярность. Произошло это в 1936 в году.-- --Качество: BDRip-AVC
Формат: MKV
Видео кодек: H.264
Аудио кодек: AC3
Видео: 956x576 (1.66:1), 23.976 fps, MPEG-4 AVC, ~3500 kbps avg, 0.265 bit/pixel
Аудио #1: [RUS] 48.0 kHz, AC3 Dolby Digital, 2/0 (L,R) ch, ~256.00 kbps avg || DVO
Аудио #2: [RUS] 48.0 kHz, AC3 Dolby Digital, 2/0 (L,R) ch, ~192.00 kbps avg || DVO R5
Аудио #3: [RUS] 48.0 kHz, AC3 Dolby Digital, 1/0 (C) ch, ~192.00 kbps avg || AVO - Ю. Сербин
Аудио #4: [JPN] 48.0 kHz, AC3 Dolby Digital, 1/0 (C) ch, ~192.00 kbps avg || Оригинал
Субтитры: русские, английские (встроенные, отключаемые)
Навигация по главам: есть--

Знаете ли вы, что...

* В СССР картина попала в 1990 году и прошла ограниченным прокатом. Демонстрация фильма сопровождалась протестами, связанными с непристойным характером картины, который мог шокировать зрителей.
* Фильм «Империя чувств» входит в список двенадцати самых шокирующих фильмов последних тридцати лет, составленный Британским «Times Online».
* В 1976 году фильм «Империя чувств» стал сенсацией Каннского фестиваля, где его назвали «первым великим эротическим фильмом».

Media Info

Общее
Уникальный идентификатор : 223511911847887682111755561858587842500 (0xA826D411BA620E84A983B5E6B49257C4)
Полное имя : D:Мои РипыImperija.chuvstv.1976.x264.BDRip.AVC.MediaClub.mkv
Формат : Matroska
Версия формата : Version 4 / Version 2
Размер файла : 3,10 Гбайт
Продолжительность : 1 ч. 42 м.
Общий поток : 4335 Кбит/сек
Название фильма : = MediaClub = rip by krakatuq
Дата кодирования : UTC 2014-05-16 12:49:36
Программа кодирования : mkvmerge v6.6.0 ('The Edge Of The In Between') built on Dec 1 2013 17:55:00
Библиотека кодирования : libebml v1.3.0 + libmatroska v1.4.1
Видео
Идентификатор : 1
Формат : AVC
Формат/Информация : Advanced Video Codec
Профиль формата : [email protected]
Параметр CABAC формата : Да
Параметр ReFrames формата : 9 кадров
Идентификатор кодека : V_MPEG4/ISO/AVC
Продолжительность : 1 ч. 42 м.
Битрейт : 3500 Кбит/сек
Ширина : 956 пикселей
Высота : 576 пикселей
Соотношение сторон : 1,660
Режим частоты кадров : Постоянный
Частота кадров : 23,976 кадра/сек
Цветовое пространство : YUV
Субдискретизация насыщенности : 4:2:0
Битовая глубина : 8 бит
Тип развёртки : Прогрессивная
Бит/(Пиксели*Кадры) : 0.265
Размер потока : 2,44 Гбайт (79%)
Заголовок : Imperija.chuvstv.1976.x264.BDRip.AVC.MediaClub
Библиотека кодирования : x264 core 142 r2409+42 04be48a tMod [[email protected]:2:0 X86]
Настройки программы : cabac=1 / ref=9 / deblock=1:-2:-2 / analyse=0x3:0x133 / me=umh / subme=11 / psy=1 / fade_compensate=0.00 / psy_rd=1.00:0.15 / mixed_ref=1 / me_range=32 / chroma_me=1 / trellis=2 / 8x8dct=1 / cqm=0 / deadzone=21,11 / fast_pskip=0 / chroma_qp_offset=-3 / threads=3 / lookahead_threads=1 / sliced_threads=0 / nr=0 / decimate=0 / interlaced=0 / bluray_compat=0 / constrained_intra=0 / fgo=0 / bframes=8 / b_pyramid=2 / b_adapt=2 / b_bias=0 / direct=3 / weightb=1 / open_gop=0 / weightp=2 / keyint=240 / keyint_min=23 / scenecut=40 / intra_refresh=0 / rc=2pass / mbtree=0 / bitrate=3500 / ratetol=1.0 / qcomp=0.60 / qpmin=0:0:0 / qpmax=69:69:69 / qpstep=4 / cplxblur=20.0 / qblur=0.5 / ip_ratio=1.40 / pb_ratio=1.30 / aq=1:1.00 / aq-sensitivity=10.00 / aq-factor=1.00:1.00:1.00 / aq2=0 / aq3=0
Язык : English
Default : Да
Forced : Нет
Аудио #1
Идентификатор : 2
Формат : AC-3
Формат/Информация : Audio Coding 3
Расширение режима : CM (complete main)
Параметр Endianness формата : Big
Идентификатор кодека : A_AC3
Продолжительность : 1 ч. 42 м.
Вид битрейта : Постоянный
Битрейт : 256 Кбит/сек
Каналы : 2 канала
Расположение каналов : Front: L R
Частота : 48,0 КГц
Битовая глубина : 16 бит
Метод сжатия : С потерями
Размер потока : 188 Мбайт (6%)
Заголовок : TRACK_01_DVO_RUS
Язык : Russian
Default : Да
Forced : Да
Аудио #2
Идентификатор : 3
Формат : AC-3
Формат/Информация : Audio Coding 3
Расширение режима : CM (complete main)
Параметр Endianness формата : Big
Идентификатор кодека : A_AC3
Продолжительность : 1 ч. 42 м.
Вид битрейта : Постоянный
Битрейт : 192 Кбит/сек
Каналы : 2 канала
Расположение каналов : Front: L R
Частота : 48,0 КГц
Битовая глубина : 16 бит
Метод сжатия : С потерями
Размер потока : 141 Мбайт (4%)
Заголовок : TRACK_02_DVO_RUS_R5
Язык : Russian
Default : Нет
Forced : Нет
Аудио #3
Идентификатор : 4
Формат : AC-3
Формат/Информация : Audio Coding 3
Расширение режима : CM (complete main)
Параметр Endianness формата : Big
Идентификатор кодека : A_AC3
Продолжительность : 1 ч. 42 м.
Вид битрейта : Постоянный
Битрейт : 192 Кбит/сек
Каналы : 1 канал
Расположение каналов : Front: C
Частота : 48,0 КГц
Битовая глубина : 16 бит
Метод сжатия : С потерями
Размер потока : 141 Мбайт (4%)
Заголовок : TRACK_03_AVO_RUS_SERBIN
Язык : Russian
Default : Нет
Forced : Нет
Аудио #4
Идентификатор : 5
Формат : AC-3
Формат/Информация : Audio Coding 3
Расширение режима : CM (complete main)
Параметр Endianness формата : Big
Идентификатор кодека : A_AC3
Продолжительность : 1 ч. 42 м.
Вид битрейта : Постоянный
Битрейт : 192 Кбит/сек
Каналы : 1 канал
Расположение каналов : Front: C
Частота : 48,0 КГц
Битовая глубина : 16 бит
Метод сжатия : С потерями
Размер потока : 141 Мбайт (4%)
Заголовок : TRACK_04_ORIGINAL_JPN
Язык : Japanese
Default : Нет
Forced : Нет
Текст #1
Идентификатор : 6
Формат : UTF-8
Идентификатор кодека : S_TEXT/UTF8
Идентификатор кодека/Информация : UTF-8 Plain Text
Заголовок : TEXT_01_SUB_RUS
Язык : Russian
Default : Нет
Forced : Нет
Текст #2
Идентификатор : 7
Формат : UTF-8
Идентификатор кодека : S_TEXT/UTF8
Идентификатор кодека/Информация : UTF-8 Plain Text
Заголовок : TEXT_02_SUB_ENG
Язык : English
Default : Нет
Forced : Нет
Меню
00:00:00.000 : en:00:00:00.000
00:04:04.160 : en:00:04:04.160
00:07:24.026 : en:00:07:24.026
00:11:10.628 : en:00:11:10.628
00:14:45.467 : en:00:14:45.467
00:19:59.198 : en:00:19:59.198
00:22:30.932 : en:00:22:30.932
00:24:57.996 : en:00:24:57.996
00:30:27.992 : en:00:30:27.992
00:34:29.650 : en:00:34:29.650
00:37:51.268 : en:00:37:51.268
00:40:31.220 : en:00:40:31.220
00:45:26.890 : en:00:45:26.890
00:50:24.146 : en:00:50:24.146
00:55:27.282 : en:00:55:27.282
00:58:07.025 : en:00:58:07.025
01:01:17.423 : en:01:01:17.423
01:05:21.709 : en:01:05:21.709
01:10:30.684 : en:01:10:30.684
01:17:37.611 : en:01:17:37.611
01:20:25.487 : en:01:20:25.487
01:26:59.213 : en:01:26:59.213
01:29:28.529 : en:01:29:28.529
01:36:23.861 : en:01:36:23.861

Скриншоты

       
-- --

_________________

===============================
IGNOSCITO SAEPE ALTERI, NUNQUAM TIBI
Вне форума [Профиль] [ЛС]
Похожие темы
Форум Тема Автор Торрент Отв. Посл. сообщение
./templates/default/images/folder_dl.gif Разное Екатерина II, Вольтер | Переписка Российской императрицы Екатерины второй с Вольтером [1802] [PDF] UndegraundMen
1 | 0

0 | 1535

6

2013-08-26 23:32
UndegraundMen Последнее
./templates/default/images/folder_dl.gif Фантастика, фэнтези, ужасы, мистика Иар Эльтеррус | Гнев Императора. Книга вторая. Дальний путь (2016) [FB2] moralis
1 | 0

0 | 216

6

2016-03-31 22:47
moralis Последнее
./templates/default/images/folder_dl.gif Фантастика, фэнтези, ужасы, мистика Владимир Лошаченко | Императорский маг (2016) [FB2] moralis
1 | 0

0 | 173

6

2016-08-12 20:06
moralis Последнее
Показать сообщения:    
Ответить на тему

Текущее время: Сегодня 13:11

Часовой пояс: GMT + 3



Вы не можете начинать темы
Вы не можете отвечать на сообщения
Вы не можете редактировать свои сообщения
Вы не можете удалять свои сообщения
Вы не можете голосовать в опросах
Вы не можете прикреплять файлы к сообщениям
Вы не можете скачивать файлы