Сегодня идет свободное скачивание без начисления Download

Внеземная эротика 2 / Эротика пришельцев 2 / Sex Files: Alien Erotica II (Марк Деларой) [2000, фантастика, эротика, SATRip] MVO

Ответить на тему
 
Автор
Сообщение

O.S.A. ®

Пол:

Стаж: 3 года 1 месяц

Сообщений: 4520

Откуда: СССР

Торрент-статистика

Пост 29-Май-2014 19:02

[Цитировать]

--Внеземная эротика 2 / Эротика пришельцев 2 / Sex Files: Alien Erotica II-- Год выпуска: 2000
Страна: США
Жанр: фантастика, эротика
Продолжительность: 01:20:04
Перевод: Профессиональный (многоголосый закадровый)-Режиссер: Марк Деларой-В ролях: Кира Рид Лорш, Аксия, Скотт Хэйнс, Брэд Бартрэм, Реджина Расселл, Мика Брэдшоу, Гари Анжелино, Роберт Донован, Мишель фон Флотов, Гриффин Дрю...-Описание: Если в первой серии "сексуальный вирус" принесла на Землю астронавтка, совершившая полет в космос, то во втором фильме аналогичная "зараза" преодолела плотные слои земной атмосферы и совершила "мягкую посадку" в мусорном баке на задворках какого-то американского ресторанчика. И каждого, кто чуял аромат инопланетного вируса, буквально разрывали сексуальные инстинкты. Первыми жертвами "заразы" стали парень-повар и две его коллеги-официантки...-- --Качество: SATRip
Формат: AVI
Видео кодек: DivX
Аудио кодек: MP3
Видео: 416x304 (1.37:1), 25.000 fps, DivX MPEG-4, ~1091 kbps avg, 0.345 bit/pixel
Аудио: 48.0 kHz, MPEG Audio Layer 3, 2 ch, ~119.00 kbps avg
Субтитры: нет--

Media Info

Код:
General
Complete name                    : W:\O.S.A.\Торренты\Завершенные торренты\Sex Files Alien Erotic 2.avi
Format                           : AVI
Format/Info                      : Audio Video Interleave
File size                        : 700 MiB
Duration                         : 1h 20mn
Overall bit rate                 : 1 223 Kbps
Writing application              : VirtualDubMod 1.5.10.2 (build 2540/release)
Writing library                  : VirtualDubMod build 2540/release
Video
ID                               : 0
Format                           : MPEG-4 Visual
Format settings, BVOP            : 1
Format settings, QPel            : No
Format settings, GMC             : No warppoints
Format settings, Matrix          : Default (H.263)
Muxing mode                      : Packed bitstream
Codec ID                         : DX50
Codec ID/Hint                    : DivX 5
Duration                         : 1h 20mn
Bit rate                         : 1 091 Kbps
Width                            : 416 pixels
Height                           : 304 pixels
Display aspect ratio             : 4:3
Frame rate                       : 25.000 fps
Color space                      : YUV
Chroma subsampling               : 4:2:0
Bit depth                        : 8 bits
Scan type                        : Progressive
Compression mode                 : Lossy
Bits/(Pixel*Frame)               : 0.345
Stream size                      : 625 MiB (89%)
Writing library                  : DivX 5.2.1 (WaffleDay) (UTC 2004-09-08)
Audio
ID                               : 1
Format                           : MPEG Audio
Format version                   : Version 1
Format profile                   : Layer 3
Mode                             : Joint stereo
Mode extension                   : MS Stereo
Codec ID                         : 55
Codec ID/Hint                    : MP3
Duration                         : 1h 20mn
Bit rate mode                    : Variable
Bit rate                         : 119 Kbps
Channel(s)                       : 2 channels
Sampling rate                    : 48.0 KHz
Compression mode                 : Lossy
Stream size                      : 68.0 MiB (10%)
Alignment                        : Aligned on interleaves
Interleave, duration             : 24 ms (0.60 video frame)
Interleave, preload duration     : 527 ms

Скриншоты

       
-- --

_________________

===============================
IGNOSCITO SAEPE ALTERI, NUNQUAM TIBI
Вне форума [Профиль] [ЛС]
Показать сообщения:    
Ответить на тему

Текущее время: Сегодня 17:39

Часовой пояс: GMT + 3



Вы не можете начинать темы
Вы не можете отвечать на сообщения
Вы не можете редактировать свои сообщения
Вы не можете удалять свои сообщения
Вы не можете голосовать в опросах
Вы не можете прикреплять файлы к сообщениям
Вы не можете скачивать файлы