Сегодня идет свободное скачивание без начисления Download

Город потерянных детей / La cite des enfants perdus / The City of Lost Children (Марк Каро, Жан-Пьер Жене) [1995 г., драма, фэнтези, триллер, HDTVRip] [MVO] (Студия "Русский Дубляж" по заказу СТС) + Sub (Rus)

Ответить на тему
 
Автор
Сообщение

maxkiller ®

Пол:

Стаж: 4 года 9 месяцев

Сообщений: 282

Торрент-статистика

Пост 06-Июн-2014 20:08

[Цитировать]

Город потерянных детей / La cité des enfants perdus Год выпуска: 1995
Страна: Германия, Франция, Испания
Жанр: драма, фэнтези, триллер
Продолжительность: 01:45:01
Перевод: Профессиональный (многоголосый, закадровый)[Студия "Русский Дубляж" по заказу СТС]
Субтитры: русские внешние, srt-Режиссер: Жан-Пьер Жёне / Марк Каро-В ролях: Рон Перлман, Жюдит Витте, Доминик Пинон, Даниэль Эмильфорк, Жан-Клод Дрейфюс, Женевьев Бруне, Одиль Мале, Мирей Моссе, Серж Мерлен, Рюфюс, Тикки Ольгадо, Джозеф Люсьен, Мапи Галан, Брик Бартелеми, Пьер-Квентин Фаэш, Алексис Пиво, Лео Рубион, Гийом Билод-Морель, Франсуа Хаджи-Лазаро, Доминик Беттенфельд, Лотфи Яхья Джедиди, Тьерри Гибо, Марк Каро, Жан-Луи Трентиньян, Хам-Чао Луон, Хонг Май Томас, Фрэнки Пэйн, Рене Пиво, Даниэль Адрик, Кристоф Саленгро, Рене Маркан, Энрике Вильянуэва-Описание: Недалеко от гавани пропитанного сыростью и окутанного туманом мрачного Города потерянных детей, в замке на берегу моря живет страшный ученый по имени Кранк, преждевременно постаревший из-за полной неспособности спать. По приказу Кранка его подручные-циклопы похищают детей и затаскивают в мрачную лабораторию, где злодей-ученый превращает их сны в свои собственные.
Но из-за того, что дети ужасно его боятся, он видит только их кошмары. В поисках пропавшего младшего брата в Город приходит цирковой силач Один. Ему помогает храбрая девятилетняя девочка Миетт и ее бригада маленьких бойцов сопротивления …


Качество: HDTVRip
Формат: AVI
Видео кодек: XviD
Аудио кодек: AC3
Видео: 720x384 (1.88:1), 25 fps, XviD, ~1692 kbps avg, 0.23 bit/pixel
Аудио: 48 kHz, AC3 Dolby Digital, 3/2 (L,C,R,l,r) + LFE ch, ~448.00 kbps avg [Студия "Русский Дубляж" по заказу СТС]

Релиз:

Рип lankano -- спасибо!
Звуковая дорожка СТС от Skywalker777 -- за что его и благодарим!

Интересно

* На момент создания фильма Рон Перлман не знал французского языка и был единственным американским актёром на съёмочной площадке. Тем не менее он старательно заучивал все фразы и не допустил ни одной ошибки.
* Костюмы для фильма разработал Жан-Поль Готье.
-

Награды

-Награды:
Сезар, 1996 год
Победитель: Лучшие декорации
Номинации: Лучшая работа оператора, Лучшие костюмы, Лучший саундтрек
Сатурн, 1996 год
Номинации: Лучший молодой актер/актриса (Жюдит Витте), Лучшие костюмы, Лучший фильм ужасов
Каннский кинофестиваль, 1995 год
Номинации: Золотая пальмовая ветвь
-

MI

General
Complete name : E:\INTERNET\Gorod_poteryannih_detey.HDTVRip.1995.[MVO](CTC)\Gorod_poteryannih_detey.HDTVRip.1995.[MVO](CTC).avi
Format : AVI
Format/Info : Audio Video Interleave
File size : 1.50 GiB
Duration : 1h 45mn
Overall bit rate : 2 070 Kbps
Writing application : VirtualDubMod 1.5.10.3 (build 2550/release)
Writing library : VirtualDubMod build 2550/release
Video
ID : 0
Format : MPEG-4 Visual
Format profile : Advanced [email protected]
Format settings, BVOP : 2
Format settings, QPel : No
Format settings, GMC : No warppoints
Format settings, Matrix : Custom
Codec ID : XVID
Codec ID/Hint : XviD
Duration : 1h 45mn
Bit rate : 1 692 Kbps
Width : 720 pixels
Height : 384 pixels
Display aspect ratio : 1.875
Frame rate : 25.000 fps
Color space : YUV
Chroma subsampling : 4:2:0
Bit depth : 8 bits
Scan type : Progressive
Compression mode : Lossy
Bits/(Pixel*Frame) : 0.230
Stream size : 1.17 GiB (78%)
Writing library : XviD 64
Audio
ID : 1
Format : AC-3
Format/Info : Audio Coding 3
Mode extension : CM (complete main)
Codec ID : 2000
Duration : 1h 45mn
Bit rate mode : Constant
Bit rate : 448 Kbps
Channel(s) : 6 channels
Channel positions : Front: L C R, Side: L R, LFE
Sampling rate : 48.0 KHz
Bit depth : 16 bits
Compression mode : Lossy
Stream size : 337 MiB (22%)
Alignment : Split accross interleaves
Interleave, duration : 40 ms (1.00 video frame)
Interleave, preload duration : 500 ms

Скриншоты:

       
Вне форума [Профиль] [ЛС]
Похожие темы
Форум Тема Автор Торрент Отв. Посл. сообщение
./templates/default/images/folder_dl.gif Строительство, Дизайн и Ремонт Журнал | Загородный дом на все 100% №2 [апрель 2013] [PDF] UndegraundMen
0 | 1

1 | 1091

12

2013-03-21 16:32
Dracula Последнее
./templates/default/images/folder_dl.gif Строительство, Дизайн и Ремонт Олег Платонов | Как отопить загородный дом (2008) [FB2] Omen
1 | 0

0 | 884

14

2015-04-01 09:22
Omen Последнее
./templates/default/images/folder_dl.gif Комиксы, Графика, Wallpapers, Арт Обои - Большая коллекция обоев - Города [JPG] Omen
1 | 0

0 | 1208

21

2015-05-08 20:04
Omen Последнее
./templates/default/images/folder_dl.gif Приключения и квесты Small Town Terrors 3 Galdors Bluff Sammleredition / Террор в городке 3 Блеф Галдора Коллекционное издание [P] [RUS] (2015) Omen
14 | 0

0 | 866

15

2015-06-13 15:00
Omen Последнее
./templates/default/images/folder_dl.gif Строительство, Дизайн и Ремонт В. Рыженко | Технологии строительства современных загородных домов (2007) [PDF] Omen
0 | 1

0 | 379

2

2015-07-28 23:41
Omen Последнее
./templates/default/images/folder_dl.gif Строительство, Дизайн и Ремонт Виталий Злобин | Как создать современный проект загородного дома (2016) [FB2] moralis
1 | 0

0 | 718

4

2016-04-14 20:27
moralis Последнее
./templates/default/images/folder_dl.gif Книги для IPhone, IPod, Apple Пратчетт Терри - Мойст фон Липвиг - Книга 3. На всех парах [Царегородцев Сергей (ЛИ), 2016, Фэнтези, 128 kbps], M4B VHS
1 | 0

0 | 686

2

2016-09-02 22:13
VHS Последнее
./templates/default/images/folder_dl.gif Книги для IPhone, IPod, Apple Пратчетт Терри - Мойст фон Липвиг - Книга 2. Делай деньги [Царегородцев Сергей (ЛИ), 2014, Фэнтези, 128 kbps], M4B VHS
1 | 0

0 | 687

2

2016-09-04 16:57
VHS Последнее
./templates/default/images/folder_dl.gif Домоводство, Сад, Огород, Хобби Галина Кизима | Большая энциклопедия садовода-огородника от А до Я (2017) [FB2] }{@R0N
1 | 0

0 | 935

13

2017-02-16 19:40
}{@R0N Последнее
./templates/default/images/folder_dl.gif Новинки (HD|DVD|BD|WEB|TV|SAT|PDTV|-Rip) Валериан и город тысячи планет / Valerian and the City of a Thousand Planets (Люк Бессон) [2017, фантастика, фэнтези, боевик, приключения, WEB-DLRip] L | MUZOBOZ Theseus
1 | 0

0 | 8150

11

2017-11-04 01:45
Theseus Последнее
Показать сообщения:    
Ответить на тему

Текущее время: Сегодня 15:03

Часовой пояс: GMT + 3



Вы не можете начинать темы
Вы не можете отвечать на сообщения
Вы не можете редактировать свои сообщения
Вы не можете удалять свои сообщения
Вы не можете голосовать в опросах
Вы не можете прикреплять файлы к сообщениям
Вы не можете скачивать файлы