Сегодня идет свободное скачивание без начисления Download

Город потерянных детей / La cite des enfants perdus / The City of Lost Children (Марк Каро, Жан-Пьер Жене) [1995 г., драма, фэнтези, триллер, HDTVRip] [MVO] (Студия "Русский Дубляж" по заказу СТС) + Sub (Rus)

Ответить на тему
 
Автор
Сообщение

maxkiller ®

Пол:

Стаж: 4 года 1 месяц

Сообщений: 280

Торрент-статистика

Пост 06-Июн-2014 20:08

[Цитировать]

Город потерянных детей / La cité des enfants perdus Год выпуска: 1995
Страна: Германия, Франция, Испания
Жанр: драма, фэнтези, триллер
Продолжительность: 01:45:01
Перевод: Профессиональный (многоголосый, закадровый)[Студия "Русский Дубляж" по заказу СТС]
Субтитры: русские внешние, srt-Режиссер: Жан-Пьер Жёне / Марк Каро-В ролях: Рон Перлман, Жюдит Витте, Доминик Пинон, Даниэль Эмильфорк, Жан-Клод Дрейфюс, Женевьев Бруне, Одиль Мале, Мирей Моссе, Серж Мерлен, Рюфюс, Тикки Ольгадо, Джозеф Люсьен, Мапи Галан, Брик Бартелеми, Пьер-Квентин Фаэш, Алексис Пиво, Лео Рубион, Гийом Билод-Морель, Франсуа Хаджи-Лазаро, Доминик Беттенфельд, Лотфи Яхья Джедиди, Тьерри Гибо, Марк Каро, Жан-Луи Трентиньян, Хам-Чао Луон, Хонг Май Томас, Фрэнки Пэйн, Рене Пиво, Даниэль Адрик, Кристоф Саленгро, Рене Маркан, Энрике Вильянуэва-Описание: Недалеко от гавани пропитанного сыростью и окутанного туманом мрачного Города потерянных детей, в замке на берегу моря живет страшный ученый по имени Кранк, преждевременно постаревший из-за полной неспособности спать. По приказу Кранка его подручные-циклопы похищают детей и затаскивают в мрачную лабораторию, где злодей-ученый превращает их сны в свои собственные.
Но из-за того, что дети ужасно его боятся, он видит только их кошмары. В поисках пропавшего младшего брата в Город приходит цирковой силач Один. Ему помогает храбрая девятилетняя девочка Миетт и ее бригада маленьких бойцов сопротивления …


Качество: HDTVRip
Формат: AVI
Видео кодек: XviD
Аудио кодек: AC3
Видео: 720x384 (1.88:1), 25 fps, XviD, ~1692 kbps avg, 0.23 bit/pixel
Аудио: 48 kHz, AC3 Dolby Digital, 3/2 (L,C,R,l,r) + LFE ch, ~448.00 kbps avg [Студия "Русский Дубляж" по заказу СТС]

Релиз:

Рип lankano -- спасибо!
Звуковая дорожка СТС от Skywalker777 -- за что его и благодарим!

Интересно

* На момент создания фильма Рон Перлман не знал французского языка и был единственным американским актёром на съёмочной площадке. Тем не менее он старательно заучивал все фразы и не допустил ни одной ошибки.
* Костюмы для фильма разработал Жан-Поль Готье.
-

Награды

-Награды:
Сезар, 1996 год
Победитель: Лучшие декорации
Номинации: Лучшая работа оператора, Лучшие костюмы, Лучший саундтрек
Сатурн, 1996 год
Номинации: Лучший молодой актер/актриса (Жюдит Витте), Лучшие костюмы, Лучший фильм ужасов
Каннский кинофестиваль, 1995 год
Номинации: Золотая пальмовая ветвь
-

MI

General
Complete name : E:\INTERNET\Gorod_poteryannih_detey.HDTVRip.1995.[MVO](CTC)\Gorod_poteryannih_detey.HDTVRip.1995.[MVO](CTC).avi
Format : AVI
Format/Info : Audio Video Interleave
File size : 1.50 GiB
Duration : 1h 45mn
Overall bit rate : 2 070 Kbps
Writing application : VirtualDubMod 1.5.10.3 (build 2550/release)
Writing library : VirtualDubMod build 2550/release
Video
ID : 0
Format : MPEG-4 Visual
Format profile : Advanced [email protected]
Format settings, BVOP : 2
Format settings, QPel : No
Format settings, GMC : No warppoints
Format settings, Matrix : Custom
Codec ID : XVID
Codec ID/Hint : XviD
Duration : 1h 45mn
Bit rate : 1 692 Kbps
Width : 720 pixels
Height : 384 pixels
Display aspect ratio : 1.875
Frame rate : 25.000 fps
Color space : YUV
Chroma subsampling : 4:2:0
Bit depth : 8 bits
Scan type : Progressive
Compression mode : Lossy
Bits/(Pixel*Frame) : 0.230
Stream size : 1.17 GiB (78%)
Writing library : XviD 64
Audio
ID : 1
Format : AC-3
Format/Info : Audio Coding 3
Mode extension : CM (complete main)
Codec ID : 2000
Duration : 1h 45mn
Bit rate mode : Constant
Bit rate : 448 Kbps
Channel(s) : 6 channels
Channel positions : Front: L C R, Side: L R, LFE
Sampling rate : 48.0 KHz
Bit depth : 16 bits
Compression mode : Lossy
Stream size : 337 MiB (22%)
Alignment : Split accross interleaves
Interleave, duration : 40 ms (1.00 video frame)
Interleave, preload duration : 500 ms

Скриншоты:

       
Вне форума [Профиль] [ЛС]
Похожие темы
Форум Тема Автор Торрент Отв. Посл. сообщение
./templates/default/images/folder_dl.gif Фильмы 2001-2010 Орудия смерти: Город костей / The Mortal Instruments: City of Bones (Харольд Цварт) (Боевик, Детектив, Приключения 2013) HDRip Omen
1 | 0

0 | 1081

34

2013-11-19 14:19
Omen Последнее
./templates/default/images/folder_dl.gif T Фильмы 2001-2010 Город грехов 2: Женщина, ради которой стоит убивать / Sin City: A Dame to Kill For (Фрэнк Миллер, Роберт Родригес) [2014 г., фантастика, боевик, WEBRip-AVC] DUB |чистый звук Theseus
1 | 0

0 | 2188

86

2014-09-21 14:14
Theseus Последнее
./templates/default/images/folder_dl.gif Обучающее видео [Profileschool] Сергей Дегтярёв | Съёмка города в режимное время: интенсив (2015) PCRec Aikivas
1 | 0

0 | 808

36

2015-03-04 21:22
Aikivas Последнее
./templates/default/images/folder_dl.gif Комиксы, Графика, Wallpapers, Арт Обои - Большая коллекция обоев - Города [JPG] Omen
2 | 0

0 | 844

21

2015-05-08 20:04
Omen Последнее
./templates/default/images/folder_dl.gif Приключения и квесты Small Town Terrors 3 Galdors Bluff Sammleredition / Террор в городке 3 Блеф Галдора Коллекционное издание [P] [RUS] (2015) Omen
21 | 0

0 | 610

10

2015-06-13 15:00
Omen Последнее
./templates/default/images/folder_dl.gif Обучающее видео Райгородский А.М. Комбинаторика и вероятности [2015, Математика, CAMRip, RUS] (Видеоурок) Omen
1 | 0

0 | 278

1

2015-11-05 15:02
Omen Последнее
./templates/default/images/folder_dl.gif Разножанровые коллекции книг и библиотеки Книжная серия | Городские легенды [5 книг] (2011-2016) [FB2] moralis
1 | 0

0 | 458

5

2016-01-02 14:27
moralis Последнее
./templates/default/images/folder_dl.gif Домоводство, Хобби, Бизнес Газета | Щедрый огород. Универсальный лунный календарь. Томаты (2017) [PDF] [email protected]
1 | 0

0 | 3418

7

2017-01-22 17:54
[email protected] Последнее
./templates/default/images/folder_dl.gif Домоводство, Хобби, Бизнес Газета | Щедрый огород. Универсальный лунный календарь. Огурцы (2017) [PDF] [email protected]
1 | 0

0 | 3579

7

2017-01-22 17:56
[email protected] Последнее
./templates/default/images/folder_dl.gif Домоводство, Сад, Огород, Хобби Галина Кизима | Большая энциклопедия садовода-огородника от А до Я (2017) [FB2] [email protected]
1 | 0

0 | 435

3

2017-02-16 19:40
[email protected] Последнее
Показать сообщения:    
Ответить на тему

Текущее время: Сегодня 09:44

Часовой пояс: GMT + 3



Вы не можете начинать темы
Вы не можете отвечать на сообщения
Вы не можете редактировать свои сообщения
Вы не можете удалять свои сообщения
Вы не можете голосовать в опросах
Вы не можете прикреплять файлы к сообщениям
Вы не можете скачивать файлы