Сегодня идет свободное скачивание без начисления Download

Красота по-американски / American Beauty (Сэм Мендес / Sam Mendes) [1999, Драма, BDRip] MVO

Ответить на тему
 
Автор
Сообщение

Omen ®

Стаж: 4 года 1 месяц

Сообщений: 194394

Торрент-статистика

Пост 30-Июн-2014 10:38

[Цитировать]

Красота по-американски
American Beauty
- Год выпуска: 1999
Производство: США, DreamWorks SKG
Жанр: Драма
Режиссер: Сэм Мендес / Sam Mendes
Актеры: Кевин Спейси, Аннетт Бенинг, Тора Бёрч, Уэс Бентли, Мена Сувари, Крис Купер, Питер Галлахер, Эллисон Джэнни, Скотт Бакула, Сэм Робардс, Barry Дел Шерман, Ара Сели, Джон Чо, Форт Эткинсон, Сью Кэйси, Кент Фалкон, Бренда Вел, Лиза Клауд, Элисон Фолк, Криста Гудситт, Лилия Хоуткин, Каролина Ланкастер, Романа Леа, Чекеша Ван Путтен, Эмили Захари, Нэнси Андерсон, Решма Гайяр, Стефани Риззо, Хезер Джой Шер, Челси Хертфорд, Эмбер Смит, Джоэль МакКрэри, Марисса Джэрет Винокур, Дэннис Андерсон, Мэттью Кимбро, Эрин Катрин Струббе, Брюс Коэн
Описание фильма:
Лестер Бернэм переживает кризис среднего возраста. Его не уважают и не ценят на работе, а от счастливой семьи осталась лишь видимость. У жены Кэролайн страстный роман с коллегой по работе, а угрюмая дочь-подросток Джейн увлечена соседским парнем, побывавшим в психиатрической больнице. Терзаемый душевными муками, Лестер впадает в глубокую депрессию. Но неожиданно для себя влюбляется в одноклассницу дочери Анджелу. Эта пылкая страсть дает Лестеру мощный жизненный импульс. Он ощущает прилив сил и желаний, и готов снова радоваться красоте.
Перевод: Профессиональный многоголосый
Субтитры: Отсутствуют

Продолжительность: 02:01:39
Качество видео: BDRip
Видеокодек: XviD
Битрейт видео: ~1781 Кбит/с
Размер кадра: 720x304
Аудио:
1. AC3, 6 ch, 384 Кбит/с - русский
2. AC3, 6 ch, 384 Кбит/с - английский
Награды и номинации

MediaInfo:

Общее
Полное имя : C:\NNM\Красота по-американски\Krasota po-amerikanski 1999 BDRip.avi
Формат : AVI
Формат/Информация : Audio Video Interleave
Профиль формата : OpenDML
Размер файла : 2,18 Гбайт
Продолжительность : 2 ч. 1 м.
Общий поток : 2567 Кбит/сек
Программа кодирования : VirtualDubMod 1.5.10.2 (build 2542/release)
Библиотека кодирования : VirtualDubMod build 2542/release
Видео
Идентификатор : 0
Формат : MPEG-4 Visual
Профиль формата : Advanced [email protected]
Параметр BVOP формата : 1
Параметр QPel формата : Нет
Параметр GMC формата : Без точки перехода
Параметр матрицы формата : Выборочная
Режим смешивания : Сжатый битовый поток
Идентификатор кодека : XVID
Идентификатор кодека/Подсказка : XviD
Продолжительность : 2 ч. 1 м.
Битрейт : 1781 Кбит/сек
Ширина : 720 пикселей
Высота : 304 пикселя
Соотношение сторон : 2,35:1
Частота кадров : 23,976 кадра/сек
Цветовое пространство : YUV
Субдискретизация насыщенности : 4:2:0
Битовая глубина : 8 бит
Тип развёртки : Прогрессивная
Метод сжатия : С потерями
Бит/(Пиксели*Кадры) : 0.339
Размер потока : 1,51 Гбайт (69%)
Библиотека кодирования : XviD 1.2.1 (UTC 2008-12-04)
Аудио #1
Идентификатор : 1
Формат : AC-3
Формат/Информация : Audio Coding 3
Расширение режима : CM (complete main)
Идентификатор кодека : 2000
Продолжительность : 2 ч. 1 м.
Вид битрейта : Постоянный
Битрейт : 384 Кбит/сек
Каналы : 6 каналов
Расположение каналов : Front: L C R, Side: L R, LFE
Частота : 48,0 КГц
Битовая глубина : 16 бит
Метод сжатия : С потерями
Размер потока : 334 Мбайт (15%)
Выравнивание : Разделение по промежуткам
Продолжительность промежутка : 42 мс. (1,00 видеокадр)
Время предзагрузки промежутка : 500 мс.
Аудио #2
Идентификатор : 2
Формат : AC-3
Формат/Информация : Audio Coding 3
Расширение режима : CM (complete main)
Идентификатор кодека : 2000
Продолжительность : 2 ч. 1 м.
Вид битрейта : Постоянный
Битрейт : 384 Кбит/сек
Каналы : 6 каналов
Расположение каналов : Front: L C R, Side: L R, LFE
Частота : 48,0 КГц
Битовая глубина : 16 бит
Метод сжатия : С потерями
Размер потока : 334 Мбайт (15%)
Выравнивание : Разделение по промежуткам
Продолжительность промежутка : 42 мс. (1,00 видеокадр)
Время предзагрузки промежутка : 500 мс.
Скриншоты:          
         
Вне форума [Профиль] [ЛС]
Похожие темы
Форум Тема Автор Торрент Отв. Посл. сообщение
./templates/default/images/folder_dl.gif Кулинария Виктория Карпухина | Как заботиться о себе, если тебе за 40. Здоровье, красота, стройность, энергичность (2012) [FB2, EPUB] Omen
0 | 1

0 | 274

2

2015-08-17 15:29
Omen Последнее
Показать сообщения:    
Ответить на тему

Текущее время: Сегодня 17:36

Часовой пояс: GMT + 3



Вы не можете начинать темы
Вы не можете отвечать на сообщения
Вы не можете редактировать свои сообщения
Вы не можете удалять свои сообщения
Вы не можете голосовать в опросах
Вы не можете прикреплять файлы к сообщениям
Вы не можете скачивать файлы