Сегодня идет свободное скачивание без начисления Download

"profileschool" | Adobe Photoshop. Коммерческая ретушь (2013) [PCRec]

Ответить на тему
 
Автор
Сообщение

Omen ®

Стаж: 6 лет

Сообщений: 184329

Торрент-статистика

Пост 05-Июл-2014 11:58

[Цитировать]

"profileschool"
Adobe Photoshop.
Коммерческая ретушь
- Автор (режиссер): profileschool
Преподаватель: Алексей Довгуля
Жанр: Фотошоп
Продолжительность: 13:30:32
Качество видео: PCRec
Видеокодек: VP6
Битрейт видео: ~15.583fps 8870kbps
Размер кадра: 1680x1056
Аудиокодек: MP3
Битрейт аудио: 44100Hz stereo 131kbps
Доп. материалы: Имеются
Описание:
Курс создан специально для ретушеров и фотографов. На этом курсе вы научитесь профессионально выполнять работу за которую платят. Вооружившись планшетным пером, вы будете освежать и омолаживать лица, использовать хитрости косметологов и художников.
Но, что еще более важно, вы научитесь работать быстро, ведь любому профессионалу известно, что время – деньги. На курсе вы узнаете, не только как "сбросить" клиентке пару лет, но и коснетесь мира моды и рекламы. Как ретушировать глаза, ресницы, губы в Beauty съемках, как выглаживать и чистить одежду в рекламных макетах и каталогах, у вас не останется вопросов после нашего курса.

Содержание:

Занятие 1. Техническая ретушь
Тема 1. Конвертирование Raw в Adobe Camera Raw
● Интерфейс
● Три основных параметра – баланс белого, яркость, насыщенность
● Локальная коррекция
● Варианты конвертирования
Тема 2. Анализ и подготовка изображения
● Анализ основных недостатков
● План действий
● Применение различных вариантов конвертирования
Тема 3. Частотное разложение
● Что это такое, механика метода
● Gaussian Blur
● Apply Image
● Healing Brush и частотное разложение
● Альтернативные варианты частотного разложения
● Clone Stamp
Занятие 2. Портрет
Тема 4. Основные принципы
● Теория формы и объема
● Пропорции и геометрия лица
● Механика определения пропорций
Тема 5. Сглаживание текстуры
● Clone Stamp, настройка
● Технология сглаживания
● Устранение недостатков
Тема 6. Выявление объема
● Свет и тень. Dodge&Burn
● Настройка инструментов
● Анатомия и выявление объема
● Карта бликов и теней
Занятие 3. Ретушь Beauty съемки
Тема 7. Beauty снимки
● Тонкости
● Требования и основные ошибки
● Теория макияжа
Тема 8. Beauty ретушь и отрисовка макияжа
● Глаза, брови, ресницы, губы, волосы, зубы
Занятие 4. Ростовой портрет
Тема 9. Ретушь Fashion снимков
● Основные понятия
● Конвертирование, локальная коррекция
● Исправление перспективы
● Изменение пропорций тела
● Инструмент Liquify и его настройки
● Устранение недостатков на одежде и фоне
Тема 10. Ретушь тела
● Liquify и Freezing Mask
● Устранение складок и следов от одежды
● Отрисовка света и тени, выявление объема и рельефа тела
Занятие 5. Корпоративный портрет
Тема 11. Ретушь мужского портрета
● Анатомия мужского лица
● Возраст и допустимые границы
● Устранение недостатков
● Исправление светотеневого рисунка
Тема 12. Ретушь женщины в возрасте
● Нормы, требования
● Естественность или –20 лет
● Вторые подбородки и морщины
Тема 13. Ретушь портрета детей
● Особенности и ожидания заказчика
Занятие 6. Предметная ретушь
Тема 14. Обтравка предметов
● Обтравка на неоднородном фоне
● Обтравка предметов с неровными краями (мех, волосы)
Тема 15. Обработка предметов одежды для каталога
● Обработка каталога одежды со вставкой
● Очистка от пыли
● Очистка от пятен на фоне
Тема 16. Обработка ювелирных украшений
● Увеличение глубины резкости
● Исправление бликов
● Придание глубины камням
Тема 17. Обработка стеклянных и бликующих предметов
● Обработка предметов косметики
● Очистка от лишних бликов и отражений
● Отрисовка бликов с помощью Path
Занятие 7. Стилизация, тонирование и конечный результат
Тема 18. Тонирование кожи
● Загар с Chanel Mixer
● Тонирование кожи с помощью Solid Color
Тема 19. Стилизация
● Настроение снимка с помощью Color Balance
● Стилизация Gradient Map
Тема 20. Завершающий этап
● Контраст с помощью Unsharp Mask
● Резкость и размер фотографии

Подведение итогов курса

● Финальный разбор домашних работ
● Консультация по оставшимся вопросам

MI

Общее
Полное имя : F:\Андрей\Adobe Photoshop. Коммерческая ретушь\1.flv
Формат : Flash Video
Размер файла : 566 Мбайт
Продолжительность : 2 ч. 31 м.
Общий поток : 523 Кбит/сек
liveXML : <?xpacket begin="" id="W5M0MpCehiHzreSzNTczkc9d"?>
Видео
Формат : VP6
Идентификатор кодека : 4
Продолжительность : 2 ч. 31 м.
Битрейт : 8870 Кбит/сек
Ширина : 1680 пикселей
Высота : 1056 пикселей
Соотношение сторон : 1,591
Режим частоты кадров : Постоянный
Частота кадров : 15.583 кадр/сек
Битовая глубина : 8 бит
Бит/(Пиксели*Кадры) : 10.973
Размер потока : 9,16 Гбайт
Аудио
Формат : MPEG Audio
Версия формата : Version 1
Профиль формата : Layer 3
Режим : Joint stereo
Идентификатор кодека : 2
Идентификатор кодека/Подсказка : MP3
Продолжительность : 2 ч. 31 м.
Вид битрейта : Постоянный
Битрейт : 131 Кбит/сек
Каналы : 2 канала
Частота : 44,1 КГц
Метод сжатия : С потерями
Размер потока : 139 Мбайт (24%)
Скриншоты:
           

Ещё скриншоты&#58;

                     
Вне форума [Профиль] [ЛС]
Показать сообщения:    
Ответить на тему

Текущее время: Сегодня 07:45

Часовой пояс: GMT + 3



Вы не можете начинать темы
Вы не можете отвечать на сообщения
Вы не можете редактировать свои сообщения
Вы не можете удалять свои сообщения
Вы не можете голосовать в опросах
Вы не можете прикреплять файлы к сообщениям
Вы не можете скачивать файлы