Сегодня идет свободное скачивание без начисления Download

Немезида / Nemesis (Альберт Пьюн / Albert Pyun) [1992, Фантастика, боевик, триллер, HDRip] DVO

Ответить на тему
 
Автор
Сообщение

Omen ®

Стаж: 4 года 1 месяц

Сообщений: 194359

Торрент-статистика

Пост 06-Июл-2014 19:47

[Цитировать]

Немезида / Nemesis
«In the future... it pays to be more than human»
- Год выпуска: 1992
Производство: Дания, США
Жанр: Фантастика, боевик, триллер
Режиссер: Альберт Пьюн / Albert Pyun
Актеры: Оливье Грюнер, Тим Томерсон, Кэри-Хироюки Тагава, Мерл Кеннеди, Юри Окумото, Марджори Монахэн, Николас Гест, Винсент Клин, Том Мэтьюз, Маржин Холден
Описание фильма:
Кибернетика достигла такого могущества, что любая часть тела может быть заменена, даже мозг. Эта сверхтехнология порождает существа, которые являются скорее киборгами, чем людьми. Секретный агент Алекс после многочисленых ранений подвергся кибернетической хирургии. Он попытался отказаться вернуться на службу, но его обвинили в контрабанде и имплатировали в сердце бомбу, которая может быть взорвана в любой момент. Теперь у Алекса нет выбора, он должен отыскать похищенный компьютерный чип, за которым отчаянно охотятся террористы...
Перевод: Профессиональный двухголосый
Субтитры: Отсутствуют

Продолжительность: 01:35:41
Качество видео: HDRip
Контейнер: AVI
Видео кодек: XviD
Аудио кодек: AC3
Видео: 720x400 (1.32:1), 25 fps, XviD, 1591 kbps avg, 0.23 bit/pixel
Аудио: 48 kHz, AC3 Dolby Digital, 3/2 (L,C,R,l,r) + LFE ch, ~384.00 kbps avg

MediaInfo:

Общее
Полное имя : C:\Немезида\Nemezida 1992 HDRip.avi
Формат : AVI
Формат/Информация : Audio Video Interleave
Размер файла : 1,37 Гбайт
Продолжительность : 1 ч. 35 м.
Общий поток : 2048 Кбит/сек
Режиссёр : ale_x2008
Жанр : Action
Программа кодирования : VirtualDubMod 1.5.10.3
Видео
Идентификатор : 0
Формат : MPEG-4 Visual
Профиль формата : Advanced [email protected]
Параметр BVOP формата : 1
Параметр QPel формата : Нет
Параметр GMC формата : Без точки перехода
Параметр матрицы формата : Default (MPEG)
Идентификатор кодека : XVID
Идентификатор кодека/Подсказка : XviD
Продолжительность : 1 ч. 35 м.
Битрейт : 1591 Кбит/сек
Ширина : 720 пикселей
Высота : 400 пикселей
Соотношение сторон : 16:9
Частота кадров : 23,976 кадра/сек
Цветовое пространство : YUV
Субдискретизация насыщенности : 4:2:0
Битовая глубина : 8 бит
Тип развёртки : Прогрессивная
Метод сжатия : С потерями
Бит/(Пиксели*Кадры) : 0.230
Размер потока : 1,06 Гбайт (78%)
Библиотека кодирования : XviD 73
Аудио
Идентификатор : 1
Формат : AC-3
Формат/Информация : Audio Coding 3
Расширение режима : CM (complete main)
Идентификатор кодека : 2000
Продолжительность : 1 ч. 35 м.
Вид битрейта : Постоянный
Битрейт : 448 Кбит/сек
Каналы : 6 каналов
Расположение каналов : Front: L C R, Side: L R, LFE
Частота : 48,0 КГц
Битовая глубина : 16 бит
Метод сжатия : С потерями
Размер потока : 307 Мбайт (22%)
Выравнивание : Разделение по промежуткам
Продолжительность промежутка : 42 мс. (1,00 видеокадр)
Время предзагрузки промежутка : 500 мс.
Скриншоты:          
         
Вне форума [Профиль] [ЛС]
Показать сообщения:    
Ответить на тему

Текущее время: Сегодня 05:07

Часовой пояс: GMT + 3



Вы не можете начинать темы
Вы не можете отвечать на сообщения
Вы не можете редактировать свои сообщения
Вы не можете удалять свои сообщения
Вы не можете голосовать в опросах
Вы не можете прикреплять файлы к сообщениям
Вы не можете скачивать файлы