Today is a free download without charge Download

(Heavy/Power Metal) [CD] Unrest - Cold Steel Whisper - 1998, FLAC (image+.cue), lossless

Reply to topic
 
Author
Message

Omen ®

Longevity: 7 years 5 months

Posts: 181087

Торрент-статистика

Post 09-Jul-2014 17:28

[Quote]

Unrest ~ Cold Steel Whisper- Жанр: Heavy/Power Metal
Носитель: CD
Год издания: 1998
Страна: Germany
Аудиокодек: FLAC (*.flac)
Тип рипа: image+.cue
Битрейт аудио: lossless
Продолжительность: 00:45:57
Источник (релизер): labanov (спасибо)
Наличие сканов в содержимом раздачи: да
Треклист:
01. Never Surrender 04:37
02. Cold Steel Whisper 04:17
03. Reptile Love 05:24
04. Out in the Rain (Hunter Part II) 04:08
05. Leave Me Now 04:41
06. Under the Gun 06:00
07. You Will Never Catch Me 03:06
08. Secret Games 04:51
09. Let It Rock 04:16
10. Ten Years 04:35-

Состав


Sönke Lau - Vocals: Claus Wiechert - Guitars: Henryk Niedbalka - Guitars:
Gerd Nawrocki - Bass: Guido Hettwer - Drums:

Об исполнителе (группе)

http://www.metal-archives.com/bands/Unrest/1680

Лог создания рипа

Exact Audio Copy V1.0 beta 3 from 29. August 2011
EAC extraction logfile from 23. June 2014, 20:45
Unrest / Cold Steel Whisper
Used drive : PIONEER DVD-RW DVR-221L Adapter: 2 ID: 0
Read mode : SecureUtilize accurate stream : YesDefeat audio cache : YesMake use of C2 pointers : No
Read offset correction : 6Overread into Lead-In and Lead-Out : NoFill up missing offset samples with silence : YesDelete leading and trailing silent blocks : NoNull samples used in CRC calculations : YesUsed interface : Native Win32 interface for Win NT & 2000
Used output format : Internal WAV RoutinesSample format : 44.100 Hz; 16 Bit; Stereo
TOC of the extracted CD
Track | Start | Length | Start sector | End sector --------------------------------------------------------- 1 | 0:00.00 | 4:37.35 | 0 | 20809 2 | 4:37.35 | 4:17.12 | 20810 | 40096 3 | 8:54.47 | 5:24.08 | 40097 | 64404 4 | 14:18.55 | 4:08.25 | 64405 | 83029 5 | 18:27.05 | 4:41.07 | 83030 | 104111 6 | 23:08.12 | 6:00.00 | 104112 | 131111 7 | 29:08.12 | 3:06.03 | 131112 | 145064 8 | 32:14.15 | 4:51.07 | 145065 | 166896 9 | 37:05.22 | 4:16.15 | 166897 | 186111 10 | 41:21.37 | 4:35.65 | 186112 | 206801
Range status and errors
Selected range
Filename D:\Свои Рипы на Линия Жизни\Unrest - Cold Steel Whisper.wav
Peak level 100.0 % Extraction speed 7.6 X Range quality 100.0 % Copy CRC 7CDCCD5A Copy OK
No errors occurred
AccurateRip summary
Track 1 cannot be verified as accurate (confidence 3) [39B4BB99], AccurateRip returned [38A79988] (AR v2)Track 2 cannot be verified as accurate (confidence 3) [7D3129E0], AccurateRip returned [DD9276C6] (AR v2)Track 3 cannot be verified as accurate (confidence 3) [A4436BC6], AccurateRip returned [8B332F9D] (AR v2)Track 4 cannot be verified as accurate (confidence 3) [8BE22714], AccurateRip returned [051EA94E] (AR v2)Track 5 cannot be verified as accurate (confidence 3) [60F70534], AccurateRip returned [A4CA5D67] (AR v2)Track 6 cannot be verified as accurate (confidence 3) [11CD0882], AccurateRip returned [7EEC2E2C] (AR v2)Track 7 cannot be verified as accurate (confidence 3) [25851684], AccurateRip returned [D3067B81] (AR v2)Track 8 cannot be verified as accurate (confidence 3) [95409556], AccurateRip returned [55810A1C] (AR v2)Track 9 cannot be verified as accurate (confidence 3) [4EE1587F], AccurateRip returned [B7FA15F8] (AR v2)Track 10 cannot be verified as accurate (confidence 3) [89370D07], AccurateRip returned [EAC18840] (AR v2)
No tracks could be verified as accurateYou may have a different pressing from the one(s) in the database
End of status report
==== Log checksum DEEBD6160F73ED633A81FEBAE427156D366FF2509C78DAD412A93A822995E500 ====
-
Other forum [Profile] [PM]

veliksarr

Longevity: 1 month 5 days

Posts: 1

Торрент-статистика

Post 29-Feb-2020 16:06 (after 5 years 7 months)

[Quote]

Omen, Дайте сидов пожайлуста.
Other forum [Profile] [PM]
Similar theme
Forum Topic Author Torrent Replies Last Post
./templates/default/images/folder_dl.gif Metal (Heavy/Power Metal) [CD] Astral Doors - Testament of Rock - The Best of Astral Doors (digipack) - 2010, FLAC (image+.cue), lossless Omen
0 | 1

0 | 492

4

2016-02-21 21:01
Omen Latest
Display posts from previous:    
Reply to topic

The time now is: Today 08:44

All times are GMT + 3 Hours



You cannot post new topics in this forum
You cannot reply to topics in this forum
You cannot edit your posts in this forum
You cannot delete your posts in this forum
You cannot vote in polls in this forum
You cannot attach files in this forum
You cannot download files in this forum