Сегодня идет свободное скачивание без начисления Download

(Swing) G-Swing - Swing For Modern Clubbing - 2006, APE (image+.cue), lossless

Ответить на тему
 
Автор
Сообщение

Koralina ®

Стаж: 7 лет 3 месяца

Сообщений: 1032

Откуда: Lithuania

Торрент-статистика

Пост 06-Янв-2012 02:29

[Цитировать]

G-Swing - Swing For Modern Clubbing Жанр: Swing
Год выпуска диска: 2006
Производитель диска: France
Аудио кодек: APE
Тип рипа: image+.cue
Битрейт аудио: lossless
Продолжительность: 61:05
Трэклист:1. G-Swing - Mood Indigo (G-Swing Feat. Ludovic Allen Remix) (2:40)
2. G-Swing - Cement Mixer (3:07)
3. G-Swing - Sing Sing Sing (3:09)
4. G-Swing - Ring Dem Bells (3:08)
5. G-Swing - Busy Line (3:30)
6. G-Swing - I'm Crazy 'Bout My Baby (3:17)
7. G-Swing - Don't Be That Way (3:06)
8. G-Swing - Calor (3:19)
9. G-Swing - Run Joe (3:09)
10. G-Swing - Diga Diga Doo (3:01)
11. G-Swing - Goin' Nuts (4:48)
12. G-Swing - Figs And Dates (3:29)
13. G-Swing - Twenty Long Years (2:08)
14. G-Swing - Promised Land (3:52)
15. G-Swing - Caravan (3:41)
16. G-Swing - Heartbreaker The Answer (11:41)

Files

Back.jpg
Disc.jpg
Front Back.jpg
Front.jpg
Tau.jpg
Various - G-Swing - Swing For Modern Clubbing(ape).cue
Various - G-Swing - Swing For Modern Clubbing.ape
Various - G-Swing - Swing For Modern Clubbing.cue
Various - G-Swing - Swing For Modern Clubbing.log

EAC Log

Exact Audio Copy V0.99 prebeta 4 from 23. January 2008
Отчёт EAC об извлечении, выполненном 15. декабря 2008, 16:01
Various / G-Swing - Swing For Modern Clubbing
Дисковод: _NEC DVD_RW ND-3550A Adapter: 1 ID: 0
Режим чтения : Достоверность
Использование точного потока : Да
Отключение кэша аудио : Да
Использование указателей C2 : Нет
Коррекция смещения при чтении : 48
Способность читать области Lead-in и Lead-out : Нет
Заполнение пропущенных сэмплов тишиной : Да
Удаление блоков с тишиной в начале и конце : Нет
При вычислениях CRC использовались нулевые сэмплы : Да
Интерфейс : Встроенный Win32-интерфейс для Win NT/2000
Выходной формат : Внутренние WAV-операции
Формат сэмплов : 44.100 Гц; 16 бит; стерео
TOC извлечённого CD
Трек | Старт | Длительность | Начальный сектор | Конечный сектор
---------------------------------------------------------------------
1 | 0:00.00 | 2:39.74 | 0 | 11998
2 | 2:39.74 | 3:07.23 | 11999 | 26046
3 | 5:47.22 | 3:09.31 | 26047 | 40252
4 | 8:56.53 | 3:08.42 | 40253 | 54394
5 | 12:05.20 | 3:30.01 | 54395 | 70145
6 | 15:35.21 | 3:17.51 | 70146 | 84971
7 | 18:52.72 | 3:06.26 | 84972 | 98947
8 | 21:59.23 | 3:19.20 | 98948 | 113892
9 | 25:18.43 | 3:09.07 | 113893 | 128074
10 | 28:27.50 | 3:01.39 | 128075 | 141688
11 | 31:29.14 | 4:48.14 | 141689 | 163302
12 | 36:17.28 | 3:29.29 | 163303 | 179006
13 | 39:46.57 | 2:08.61 | 179007 | 188667
14 | 41:55.43 | 3:52.58 | 188668 | 206125
15 | 45:48.26 | 3:41.15 | 206126 | 222715
16 | 49:29.41 | 11:41.65 | 222716 | 275355
Характеристики диапазона извлечения и сообщения об ошибках
Выбранный диапазон
Имя файла F:\Torrents\G Swng\Various - G-Swing - Swing For Modern Clubbing.wav
Пиковый уровень 100.0 %
Качество диапазона 100.0 %
CRC копии 3A3866F5
Копирование... OK
Ошибок не произошло
AccurateRip: сводка
Трек 1 нет в базе данных
Трек 2 нет в базе данных
Трек 3 нет в базе данных
Трек 4 нет в базе данных
Трек 5 нет в базе данных
Трек 6 нет в базе данных
Трек 7 нет в базе данных
Трек 8 нет в базе данных
Трек 9 нет в базе данных
Трек 10 нет в базе данных
Трек 11 нет в базе данных
Трек 12 нет в базе данных
Трек 13 нет в базе данных
Трек 14 нет в базе данных
Трек 15 нет в базе данных
Трек 16 нет в базе данных
Ни одного трека нет в базе AccurateRip
Конец отчёта

tau

 

_________________
Вне форума [Профиль] [ЛС]
Показать сообщения:    
Ответить на тему

Текущее время: Сегодня 12:31

Часовой пояс: GMT + 3



Вы не можете начинать темы
Вы не можете отвечать на сообщения
Вы не можете редактировать свои сообщения
Вы не можете удалять свои сообщения
Вы не можете голосовать в опросах
Вы не можете прикреплять файлы к сообщениям
Вы не можете скачивать файлы