Сегодня идет свободное скачивание без начисления Download

Таинственный остров капитана Немо (Расширенное издание) / La Isla misteriosa y el capitan Nemo / The Mysterious Island of Captain Nemo (Extended Edition) (1973) DVDRip

Ответить на тему
 
Автор
Сообщение

Omen ®

Стаж: 4 года 1 месяц

Сообщений: 194394

Торрент-статистика

Пост 18-Янв-2012 19:22

[Цитировать]

Таинственный остров капитана Немо (Расширенное издание)
La Isla misteriosa y el capitan Nemo
The Mysterious Island of Captain Nemo (Extended Edition)
-
Русское название: Таинственный остров капитана Немо (Расширенное издание)
Оригинальное название: La Isla misteriosa y el capitan Nemo / The Mysterious Island of Captain Nemo (Extended Edition)
Год выпуска: 1973
Жанр: Приключения, Фантастика
Страна: Франция, Италия, Испания, Камерун
Студия: Albina Productions S.a.r.l. / Cameroons Development / Cite Films / Copercines, Cooperativa Cinematografica / Filmes Cinematografica / Office de Radiodiffusion Television Francaise (ORTF)
-Описание фильма:
Великолепная экранизация одноименного романа Жюля Верна «Таинственный остров».
1865 год: окончание Гражданской войны в Америке. Несколько северян спасаются из осажденного Ричмонда на воздушном шаре. Сто раз они могли погибнуть. Сто раз их поврежденный воздушный шар мог оказаться с ними в море. Но их ждала необыкновенная судьба - они попадают на необитаемый остров. Выжить им помогает не только трудолюбие и знания, но и помощь таинственного доброжелателя, которым оказывается загадочный капитан Немо, нашедший на этом острове пристанище для себя и своего "Наутилуса".
-Доп.информация:
Это не сериал - а полная расширенная версия фильма - здесь нет разделения по сериям и титров после каждой серии тоже нет - титры, как положено в начале и в конце фильма.
За исходник немецкий DVD9 (Custom) PAL 4:3 (720x576) VBR, спасибо dvdbox.
Деление на серии условное, т.к. перевод взят с французской версии "L'Ile Mysterieuse"
Для удобства воспроизведения (в том числе и на бытовых плеерах) файл был разбит на две части, делать рип меньшего размера - было не возможно, без ущерба для качества.
-Режиссер: Хуан Антонио Бардем / Juan Antonio Bardem, Анри Кольпи / Henri Colpi
Актеры: Омар Шариф, Амбруаз Биа, Джесс Хан, Филипп Нико, Жерар Тиши, Габриэле Тинти, Рафаэль Бардем мл., Мариано Видал Молина, Рик Батталья, Альфонсо Де Ла Вега-Продолжительность: 04:27:38
Перевод: Одноголосый закадровый
Автор перевода: А. Королев (с французского "на слух", 2010 г.)
Озвучивание: любительский одноголосый закадровый (MinHertz)
- -Дата мировой премьеры: 17 марта 1973-Видеокодек: Xvid
Битрейт видео: ~1 612 Kbps
Размер кадра: 688х464
Качество видео: DVDRip
Аудиокодек: AC3 2.0
Битрейт аудио: 192 Kbps
-Исходник DVD9 (Custom) PAL 4:3 (720x576) VBR-

Тех.данные и скриншоты 1 части

Видеокодек: Xvid
Битрейт видео: ~1 653 Kbps
Размер кадра: 688х464
Качество видео: DVDRip
Аудиокодек: AC3 2.0
Битрейт аудио: 192 Kbps-

Медиаинфо 1 части

Код:
Format                                   : AVI
Format/Info                              : Audio Video Interleave
File size                                : 1.64 GiB
Duration                                 : 2h 6mn
Overall bit rate                         : 1 855 Kbps
Director                                 : CrimeanFox
Writing application                      : VirtualDubMod 1.5.10.2 (build 2540/release)
Writing library                          : VirtualDub build 32842/release
Video
ID                                       : 0
Format                                   : MPEG-4 Visual
Format profile                           : Advanced [email protected]
Format settings, BVOP                    : 2
Format settings, QPel                    : No
Format settings, GMC                     : No warppoints
Format settings, Matrix                  : Custom
Muxing mode                              : Packed bitstream
Codec ID                                 : XVID
Codec ID/Hint                            : XviD
Duration                                 : 2h 6mn
Bit rate                                 : 1 653 Kbps
Width                                    : 688 pixels
Height                                   : 464 pixels
Display aspect ratio                     : 3:2
Frame rate                               : 25.000 fps
Color space                              : YUV
Chroma subsampling                       : 4:2:0
Bit depth                                : 8 bits
Scan type                                : Progressive
Compression mode                         : Lossy
Bits/(Pixel*Frame)                       : 0.207
Stream size                              : 1.46 GiB (89%)
Writing library                          : XviD 1.0.3 (UTC 2004-12-20)
Audio
ID                                       : 1
Format                                   : AC-3
Format/Info                              : Audio Coding 3
Mode extension                           : CM (complete main)
Codec ID                                 : 2000
Duration                                 : 2h 6mn
Bit rate mode                            : Constant
Bit rate                                 : 192 Kbps
Channel(s)                               : 2 channels
Channel positions                        : Front: L R
Sampling rate                            : 48.0 KHz
Bit depth                                : 16 bits
Compression mode                         : Lossy
Stream size                              : 174 MiB (10%)
Alignment                                : Split accross interleaves
Interleave, duration                     : 40 ms (1.00 video frame)
Interleave, preload duration             : 500 ms
-Скриншоты 1 части:
       
       
-

Тех.данные и скриншоты 2 части

Видеокодек: Xvid
Битрейт видео: ~1 612 Kbps
Размер кадра: 688х464
Качество видео: DVDRip
Аудиокодек: AC3 2.0
Битрейт аудио: 192 Kbps-

Медиаинфо 2 части

Код:
Format                                   : AVI
Format/Info                              : Audio Video Interleave
File size                                : 1.79 GiB
Duration                                 : 2h 21mn
Overall bit rate                         : 1 813 Kbps
Director                                 : CrimeanFox
Writing application                      : VirtualDubMod 1.5.10.2 (build 2540/release)
Writing library                          : VirtualDub build 32842/release
Video
ID                                       : 0
Format                                   : MPEG-4 Visual
Format profile                           : Advanced [email protected]
Format settings, BVOP                    : 2
Format settings, QPel                    : No
Format settings, GMC                     : No warppoints
Format settings, Matrix                  : Custom
Muxing mode                              : Packed bitstream
Codec ID                                 : XVID
Codec ID/Hint                            : XviD
Duration                                 : 2h 21mn
Bit rate                                 : 1 612 Kbps
Width                                    : 688 pixels
Height                                   : 464 pixels
Display aspect ratio                     : 3:2
Frame rate                               : 25.000 fps
Color space                              : YUV
Chroma subsampling                       : 4:2:0
Bit depth                                : 8 bits
Scan type                                : Progressive
Compression mode                         : Lossy
Bits/(Pixel*Frame)                       : 0.202
Stream size                              : 1.59 GiB (89%)
Writing library                          : XviD 1.0.3 (UTC 2004-12-20)
Audio
ID                                       : 1
Format                                   : AC-3
Format/Info                              : Audio Coding 3
Mode extension                           : CM (complete main)
Codec ID                                 : 2000
Duration                                 : 2h 21mn
Bit rate mode                            : Constant
Bit rate                                 : 192 Kbps
Channel(s)                               : 2 channels
Channel positions                        : Front: L R
Sampling rate                            : 48.0 KHz
Bit depth                                : 16 bits
Compression mode                         : Lossy
Delay relative to video                  : 23ms
Stream size                              : 194 MiB (11%)
Alignment                                : Split accross interleaves
Interleave, duration                     : 40 ms (1.00 video frame)
Interleave, preload duration             : 500 ms
-Скриншоты 2 части:
       
       
Скриншоты:
       
Вне форума [Профиль] [ЛС]
Показать сообщения:    
Ответить на тему

Текущее время: Сегодня 15:06

Часовой пояс: GMT + 3



Вы не можете начинать темы
Вы не можете отвечать на сообщения
Вы не можете редактировать свои сообщения
Вы не можете удалять свои сообщения
Вы не можете голосовать в опросах
Вы не можете прикреплять файлы к сообщениям
Вы не можете скачивать файлы