Сегодня идет свободное скачивание без начисления Download

Лимонадный Джо или Лошадинная опера / Limonadovy Joe aneb Konska opera (1964) HDTVRip

Ответить на тему
 
Автор
Сообщение

Omen ®

Стаж: 4 года 1 месяц

Сообщений: 194382

Торрент-статистика

Пост 18-Янв-2012 20:21

[Цитировать]

Лимонадный Джо или Лошадинная опера
Limonadovy Joe aneb Konska opera
- Русское название: Лимонадный Джо или Лошадинная опера
Оригинальное название: Limonadovy Joe aneb Konska opera
Год выпуска: 1964
Страна: Чехословакия
Жанр: Комедия, Приключения, Мьюзикл-Описание фильма:
В маленьком городке на «Диком западе» крепкие парни развлекаются дракой, стрельбой и пьют виски. Нравы там грубы и жестоки, закон один - «Кто кого раньше застрелит». Даже шериф не в силах этому противостоять. Но однажды в салун заходит Он - Лимонадный Джо, и в городке начинается новая жизнь. В него влюбляются все первые красавицы городка. Секрет популярности героя «Коло-локовый лимонад» - единственный напиток, самого меткого стрелка и ловкого наездника.
Режиссер: Ольдржих Липский / Oldrich Lipsky
Актеры: Карел Фиала, Милош Копецкий, Квета Фиалова, Ольга Шоберова, Вальдемар Матушка
Продолжительность: 01:35:15
Перевод: Дублированный
Язык: Чешский
Язык субтитров: Русский, Английский
Вид субтитров: Отдельным файлом

Дата мировой премьеры: 28 августа 1964
Видеокодек: Xvid
Битрейт видео: ~2019 kbps avg, 0.369 bit/pixel
Размер кадра: 720x304 (2,35:1), 25.00 fps
Качество видео: HDTVRip
Аудиокодек: AC3, 1 channels
Битрейт аудио: 160 kbps avg, 48,0 KHz
Аудио 2: Русский, AC3 1.0, 160 Kbps, 48,0 KHz |MVO| (отдельным файлом)
Аудио 3: Чешский, AC3 2.0, 448 Kbps, 48,0 KHz |Оригинал| (отдельным файлом)-

MediaInfo

Код:
Общее
Полное имя : Limonadnii.Djo.HDTVRip\Limonadnii.Djo.HDTVRip.XviD.AC3.avi
Формат : AVI
Формат/Информация : Audio Video Interleave
Размер файла : 1,46 Гбайт
Продолжительность : 1 ч. 35 м.
Общий поток : 2189 Кбит/сек
Программа кодирования : VirtualDubMod 1.5.10.2 (build 2540/release)
Библиотека кодирования : VirtualDubMod build 2540/release
Видео
Идентификатор : 0
Формат : MPEG-4 Visual
Профиль формата : Advanced [email protected]
Параметр BVOP формата : 1
Параметр QPel формата : Да
Параметр GMC формата : Без точки перехода
Параметр матрицы формата : Выборочная
Идентификатор кодека : XVID
Идентификатор кодека/Подсказка : XviD
Продолжительность : 1 ч. 35 м.
Битрейт : 2019 Кбит/сек
Ширина : 720 пикселей
Высота : 304 пикселя
Соотношение сторон : 2,35:1
Частота кадров : 25,000 кадров/сек
Цветовое пространство : YUV
Субдискретизация насыщенности : 4:2:0
Битовая глубина : 8 бит
Тип развёртки : Прогрессивная
Метод сжатия : С потерями
Бит/(Пиксели*Кадры) : 0.369
Размер потока : 1,34 Гбайт (92%)
Библиотека кодирования : XviD 1.2.1 (UTC 2008-12-04)
Аудио
Идентификатор : 1
Формат : AC-3
Формат/Информация : Audio Coding 3
Расширение режима : CM (complete main)
Идентификатор кодека : 2000
Продолжительность : 1 ч. 35 м.
Вид битрейта : Постоянный
Битрейт : 160 Кбит/сек
Каналы : 1 канал
Расположение каналов : Front: C
Частота : 48,0 КГц
Битовая глубина : 16 бит
Метод сжатия : С потерями
Размер потока : 109 Мбайт (7%)
Выравнивание : Разделение по промежуткам
Продолжительность промежутка : 40 мс. (1,00 видеокадр)
Время предзагрузки промежутка : 500 мс.
-Скриншоты:
         
-

Еще

         
-

Рецензия, отзыв о фильме

Чтобы метко в муху бить, надо «Кола - Локу» пить!
Вот наконец я и посмотрел посоветованный мне фильм «Лимонадный Джо». И знаете остался доволен. Фильм очень лёгкий и смешной. Но в тоже время он из разряда тех фильмов, о которых думаешь: «А что же будет дальше?»
Разберемся детально и подробнее.
1. Сюжет.
Сюжет фильма зацепил меня своей трезвой сутью. Я сам, прямо как главный герой Лимонадный Джо не переношу алкоголь и поэтому полностью солидарен с авторами этого фильма. В то же время все преподнесено в шутливой форме, показывая что отказ от алкоголя может сделать человека лучше. Джо напомнил мне мистера Фёста из «Человека с бульвара Капуцинов», который также пробуждал лучшее в людях. Но если мистёр Фёст делал это с помощью кино, то Джо - лимонадом. Фильм со смыслом поэтому за сюжет 10.
2. Актёры.
Тут без нареканий. Все актёры подобраны отлично, им веришь и сопереживаешь. Потрясающие главные героини, актрисы действительно красивые. Да и герои очень колоритны.
3. Наличие мюзикла.
Я вообще люблю мюзиклы. Я слушал мюзиклы на английском, русском, французском. А вот на чешском впервые. Оригинально, но хотелось бы понять о чём поют. Ну ту как говорится, претензии к переводчикам.
4. Общие выводы
Фильм оставляет очень хорошие впечатления. Советую всем любителям хороших комедий.
P.S. Пейте лимонад и будет в жизни счастье.
10 из 10


Последний раз редактировалось: Omen (2012-01-18 20:53), всего редактировалось 1 раз
Вне форума [Профиль] [ЛС]
Показать сообщения:    
Ответить на тему

Текущее время: Сегодня 00:20

Часовой пояс: GMT + 3



Вы не можете начинать темы
Вы не можете отвечать на сообщения
Вы не можете редактировать свои сообщения
Вы не можете удалять свои сообщения
Вы не можете голосовать в опросах
Вы не можете прикреплять файлы к сообщениям
Вы не можете скачивать файлы