Сегодня идет свободное скачивание без начисления Download

Аванти! / Avanti! (Билли Уайлдер / Billy Wilder) [1972 г., Комедия, Мелодрама, DVDRip]

Ответить на тему
 
Автор
Сообщение

Omen ®

Стаж: 4 года 1 месяц

Сообщений: 194394

Торрент-статистика

Пост 21-Янв-2012 22:42

[Цитировать]

Аванти! / Avanti ! -
Русское название: Аванти!
Оригинальное название: Avanti !
Год выпуска: 1972
Жанр: Комедия, Мелодрама, Приключения-Описание фильма:
Один очень богатый парниша, спокойно и без суеты заколачивающий неплохие бабки у себя в родном Балтиморе, вдруг получает известие, что его папаша «завернул ласты» на другом конце света — в Италии. И что теперь ему надо ехать к черту на рога за трупом, чтобы доставить этот труп на родину.
Каково же было изумление нашего миллионера, когда он узнает, что старикашка «отбросил коньки» не просто от старости, а в объятиях шикарной красотки от передоза любовной страсти. Но это было только начало истории…-Режиссер: Билли Уайлдер
Актеры: Джек Леммон, Джульетт Миллс, Клайв Ревилл, Эдвард Эндрюс, Джанфранко Барра, Франко Ангрисано, Пиппо Франко, Франко Акампора, Джизельда Кастрини, Раффаель Моттола...-Продолжительность: 02:18:15
Перевод: Многоголосый закадровый- -
Лучшая мужская роль(комедия или мюзикл)-1973-

Рецензия

Сочетание сценария и режиссёрской работы Билли Уайлдера и актёрской игры Джека Леммона не оставят равнодушными любителей хорошего и доброго кино (тот же тандем и в «В джазе только девушки»). Неожиданные повороты, характерные персонажи и классический «уайлдеровский» юмор сопровождают зрителя на протяжении всего действия.
Дата мировой премьеры: 17 декабря 1972 года.-Видеокодек: DivX 5
Битрейт видео: ~1887 kb/s
Размер кадра: 688x368
Качество видео: DVDRip
Аудиокодек: AC-3
Битрейт аудио: 224 kb/s , 2ch:Front: L R , 48,0 kgz-

MediaInfo

Код:
Общее
Формат                           : AVI
Формат/Информация                : Audio Video Interleave
Профиль формата                  : OpenDML
Размер файла                     : 2,05 Гбайт
Продолжительность                : 2 ч. 18 м.
Общий поток                      : 2124 Кбит/сек
Видео
Идентификатор                    : 0
Формат                           : MPEG-4 Visual
Параметр BVOP формата            : 1
Параметр QPel формата            : Нет
Параметр GMC формата             : Без точки перехода
Параметр матрицы формата         : Default (H.263)
Режим смешивания                 : Сжатый битовый поток
Идентификатор кодека             : DX50
Идентификатор кодека/Подсказка   : DivX 5
Продолжительность                : 2 ч. 18 м.
Битрейт                          : 1887 Кбит/сек
Ширина                           : 688 пикселей
Высота                           : 368 пикселей
Соотношение сторон               : 1,870
Частота кадров                   : 25,000 кадров/сек
Цветовое пространство            : YUV
Субдискретизация насыщенности    : 4:2:0
Битовая глубина                  : 8 бит
Тип развёртки                    : Прогрессивная
Метод сжатия                     : С потерями
Бит/(Пиксели*Кадры)              : 0.298
Размер потока                    : 1,82 Гбайт (89%)
Библиотека кодирования           : DivX 6.2.5 (UTC 2006-07)
Аудио
Идентификатор                    : 1
Формат                           : AC-3
Формат/Информация                : Audio Coding 3
Расширение режима                : CM (complete main)
Идентификатор кодека             : 2000
Продолжительность                : 2 ч. 18 м.
Вид битрейта                     : Постоянный
Битрейт                          : 224 Кбит/сек
Каналы                           : 2 канала
Расположение каналов             : Front: L R
Частота                          : 48,0 КГц
Битовая глубина                  : 16 бит
Метод сжатия                     : С потерями
Размер потока                    : 222 Мбайт (11%)
Выравнивание                     : Разделение по промежуткам
Продолжительность промежутка     : 40  мс. (1,00 видеокадр)
Время предзагрузки промежутка    : 500  мс.
-Скриншоты:
     
Вне форума [Профиль] [ЛС]
Показать сообщения:    
Ответить на тему

Текущее время: Сегодня 22:47

Часовой пояс: GMT + 3



Вы не можете начинать темы
Вы не можете отвечать на сообщения
Вы не можете редактировать свои сообщения
Вы не можете удалять свои сообщения
Вы не можете голосовать в опросах
Вы не можете прикреплять файлы к сообщениям
Вы не можете скачивать файлы