Сегодня идет свободное скачивание без начисления Download

Не грози южному централу, попивая сок у себя в квартале / Don't Be a Menace to South Central While Drinking Your Juice in the Hood (Пэрис Барклай / Paris Barclay) [1996г, комедия,криминал, BDRip] MVO + VO

Ответить на тему
 
Автор
Сообщение

Omen ®

Стаж: 4 года 1 месяц

Сообщений: 194390

Торрент-статистика

Пост 30-Сен-2014 17:08

[Цитировать]

Не грози южному централу, попивая сок у себя в квартале
Don't Be a Menace to South Central While Drinking Your Juice in the Hood

« Абсолютно смешно! »
- Год выпуска: 1996
Производство: США | Miramax Films, Island Pictures, Ivory Way Productions
Жанр: Комедия, Криминал
Режиссер: Пэрис Барклай
Продюсер: Эрик Л. Голд, Кинен Айвори Уайанс, Марк Бёрг
Актеры: Шон Уайанс, Марлон Уайанс, Трэйси Черелл Джонс, Крис Спенсер, Сули МакКалло, Даррел Хит, Хелен Мартин, Ламард Дж. Тейт, Кинен Айвори Уайанс, Кит Моррис, Кэйси Ли, Ким Уайанс, Вивика А. Фокс, Вирджиния Уотсон, Алекс Томас, Берни Мак, Антонио Фаргас
Описание фильма: Молодой афроамериканец по прозвищу Пепельница переезжает в Южный Централ, Лос-Анджелес к своему отцу. Пепельница гордится тем, что они с отцом выглядят ровесниками, это, по его мнению, «очень круто». А ещё, он старше своего папы на два года. Гордится он и своей бабушкой, которая в свои-то преклонные годы покуривает и не стесняется крепких словечек. Вскоре Пепельница встречается со своим кузеном по прозвищу Лок Дог. Этот парень - гангстер, в его личном арсенале не только пистолеты и автомат, но и ядерная боеголовка советского производства - «для самозащиты». Пепельница должен выбрать свой дальнейший путь в жизни: он может быть «просто хорошим чернокожим» или стать «опасным чернокожим», примкнув к банде своего кузена.
Перевод: Профессиональный многоголосый (West Video), авторский (Д. Пучков), (П. Санаев)
Вид субтитров: Вшитые (отключаемые)
Язык субтитров: Русский, английский- -Дата мировой премьеры: 12 января 1996
Дата выхода DVD релиза: 29 марта 2000, «West Video»
Продолжительность: 01:29:26
Возраст 16+: Зрителям, достигшим 16 лет
Рейтинг MPAA R: Лицам до 17 лет обязательно присутствие взрослого
Качество видео: BDRip [H.264]
Видео: MPEG-4 AVC/H.264, 3500 Kbps, 1024 x 576
Аудио 1: Русский AC3 5.1, 384 Kbps, 48.0 KHz (Многоголосый закадровый)
Аудио 2: Русский AC3 5.1, 384 Kbps, 48.0 KHz (Одноголосый закадровый)
Аудио 3: Русский AC3 5.1, 384 Kbps, 48.0 KHz (Одноголосый закадровый)
Аудио 4: Английский AC3 5.1, 640 Kbps, 48.0 KHz (Оригинал)-

Blu-ray

MediaInfo

Общее
Полное имя : Не грози южному централу, попивая сок у себя в квартале.mkv
Формат : Matroska
Версия формата : Version 1
Размер файла : 3,31 Гбайт
Продолжительность : 1 ч. 29 м.
Общий поток : 5296 Кбит/сек
Дата кодирования : UTC 2014-09-30 06:59:27
Программа кодирования : mkvmerge v2.4.1 ('Use Me') built on Dec 5 2008 18:30:05
Библиотека кодирования : libebml v0.7.7 + libmatroska v0.8.1
Видео
Идентификатор : 1
Формат : AVC
Формат/Информация : Advanced Video Codec
Профиль формата : [url=mailto:[email protected]][email protected][/url]
Параметр CABAC формата : Да
Параметр ReFrames формата : 10 кадров
Идентификатор кодека : V_MPEG4/ISO/AVC
Продолжительность : 1 ч. 29 м.
Битрейт : 3500 Кбит/сек
Ширина : 1024 пикселя
Высота : 576 пикселей
Соотношение сторон : 16:9
Режим частоты кадров : Постоянный
Частота кадров : 29,970 кадров/сек
Цветовое пространство : YUV
Субдискретизация насыщенности : 4:2:0
Битовая глубина : 8 бит
Тип развёртки : Прогрессивная
Бит/(Пиксели*Кадры) : 0.198
Размер потока : 2,12 Гбайт (64%)
Заголовок : Не грози южному централу, попивая сок у себя в квартале (1996)
Библиотека кодирования : x264 core 133 r2334 a3ac64b
Настройки программы : cabac=1 / ref=10 / deblock=1:-3:-3 / analyse=0x3:0x133 / me=umh / subme=10 / psy=1 / psy_rd=1.00:0.10 / mixed_ref=1 / me_range=48 / chroma_me=1 / trellis=2 / 8x8dct=1 / cqm=0 / deadzone=21,11 / fast_pskip=0 / chroma_qp_offset=-3 / threads=6 / lookahead_threads=1 / sliced_threads=0 / nr=0 / decimate=1 / interlaced=0 / bluray_compat=0 / constrained_intra=0 / bframes=5 / b_pyramid=2 / b_adapt=2 / b_bias=0 / direct=3 / weightb=1 / open_gop=0 / weightp=2 / keyint=300 / keyint_min=27 / scenecut=40 / intra_refresh=0 / rc_lookahead=40 / rc=2pass / mbtree=1 / bitrate=3500 / ratetol=1.0 / qcomp=0.60 / qpmin=10 / qpmax=51 / qpstep=4 / cplxblur=20.0 / qblur=0.5 / ip_ratio=1.40 / aq=1:1.00
Язык : English
Аудио #1
Идентификатор : 2
Формат : AC-3
Формат/Информация : Audio Coding 3
Расширение режима : CM (complete main)
Параметр Endianness формата : Big
Идентификатор кодека : A_AC3
Продолжительность : 1 ч. 29 м.
Вид битрейта : Постоянный
Битрейт : 384 Кбит/сек
Каналы : 6 каналов
Расположение каналов : Front: L C R, Side: L R, LFE
Частота : 48,0 КГц
Битовая глубина : 16 бит
Метод сжатия : С потерями
Размер потока : 246 Мбайт (7%)
Заголовок : AC3 (Многоголосный) West Video
Язык : Russian
Аудио #2
Идентификатор : 3
Формат : AC-3
Формат/Информация : Audio Coding 3
Расширение режима : CM (complete main)
Параметр Endianness формата : Big
Идентификатор кодека : A_AC3
Продолжительность : 1 ч. 29 м.
Вид битрейта : Постоянный
Битрейт : 384 Кбит/сек
Каналы : 6 каналов
Расположение каналов : Front: L C R, Side: L R, LFE
Частота : 48,0 КГц
Битовая глубина : 16 бит
Метод сжатия : С потерями
Размер потока : 246 Мбайт (7%)
Заголовок : AC3 (Одноголосый) Д. Пучков
Язык : Russian
Аудио #3
Идентификатор : 4
Формат : AC-3
Формат/Информация : Audio Coding 3
Расширение режима : CM (complete main)
Параметр Endianness формата : Big
Идентификатор кодека : A_AC3
Продолжительность : 1 ч. 29 м.
Вид битрейта : Постоянный
Битрейт : 384 Кбит/сек
Каналы : 6 каналов
Расположение каналов : Front: L C R, Side: L R, LFE
Частота : 48,0 КГц
Битовая глубина : 16 бит
Метод сжатия : С потерями
Размер потока : 246 Мбайт (7%)
Заголовок : AC3 (Одноголосый) П. Санаев
Язык : Russian
Аудио #4
Идентификатор : 5
Формат : AC-3
Формат/Информация : Audio Coding 3
Расширение режима : CM (complete main)
Параметр Endianness формата : Big
Идентификатор кодека : A_AC3
Продолжительность : 1 ч. 29 м.
Вид битрейта : Постоянный
Битрейт : 640 Кбит/сек
Каналы : 6 каналов
Расположение каналов : Front: L C R, Side: L R, LFE
Частота : 48,0 КГц
Битовая глубина : 16 бит
Метод сжатия : С потерями
Задержка видео : 1 с. 0 мс.
Размер потока : 409 Мбайт (12%)
Заголовок : AC3 (Оригинал)
Язык : English
Текст #1
Идентификатор : 6
Формат : UTF-8
Идентификатор кодека : S_TEXT/UTF8
Идентификатор кодека/Информация : UTF-8 Plain Text
Заголовок : Русские
Язык : Russian
Текст #2
Идентификатор : 7
Формат : UTF-8
Идентификатор кодека : S_TEXT/UTF8
Идентификатор кодека/Информация : UTF-8 Plain Text
Заголовок : Английские
Язык : English

Дополнительно

● Сцена с Маликом пародирует фильм «Высшее образование». Героя Омара Эппса там также звали Малик.
-Скриншоты:
         
Вне форума [Профиль] [ЛС]
Показать сообщения:    
Ответить на тему

Текущее время: Сегодня 13:30

Часовой пояс: GMT + 3



Вы не можете начинать темы
Вы не можете отвечать на сообщения
Вы не можете редактировать свои сообщения
Вы не можете удалять свои сообщения
Вы не можете голосовать в опросах
Вы не можете прикреплять файлы к сообщениям
Вы не можете скачивать файлы