Сегодня идет свободное скачивание без начисления Download

Дни грома / Days of Thunder (Тони Скотт/Tony Scott)[Мелодрама, драма, спорт1990 BDRip [1080p]

Ответить на тему
 
Автор
Сообщение

KirovSOFT ®

Пол:

Стаж: 4 года 8 месяцев

Сообщений: 1581

Откуда: Кировская область -Оричи

Торрент-статистика

Пост 04-Окт-2014 18:56

[Цитировать]

Дни грома / Days of Thunder - Год выпуска: 1990
Производство: США, Don Simpson-Jerry Bruckheimer Films
Жанр: Мелодрама, драма, спорт
Режиссер: Тони Скотт
Актеры: Том Круз, Николь Кидман, Роберт Дювалл, Рэнди Куэйд, Кэри Элвис, Майкл Рукер, Фред Долтон Томпсон, Джон С. Райлли, Дж. К. Куин, Дон Симпсон, Кэролин Уильямс, Донна В. Скотт, Крис Эллис, Питер Эппел, Стивен Майкл Айерс, Майк Слэттери, Барбара Гэррик, Джералд Р. Молен, Таня Кольридж, Александра Белахойтис, Стив Бойд, Дэниэл Д. Гринвуд, Джим Гримшоу, Джеймс Мартин мл., Марго Мартиндейл, Майкл Берджесс, Джим Краузер, Джеймс Д. Хенсон, Шари Эллис, Лейлани Сарелл, Ксавьер Коронел, Ник Сирси, Джерри Панч, Гарри П. Гант, Расти Уоллес, Том Ферда, Боб Дженкинс, Ричард Петти, Энтони Синглтон, Майкл Вейн Томас
Описание фильма:
Яркая, шумная и захватывающая лента об автогонках. Гонщик Коул Трикл молод и мало кому известен, но он не боится скорости и на полном ходу может вписаться в самый крутой поворот. На гонках главным соперником Коула становится более опытный спортсмен Роуди Бернс. Но ни Коул, ни Роуди не доходят до финишной черты: происходит сильное столкновение, в результате которого соперники оказываются в одной больничной палате. Коул временно теряет зрение, и потому не может оценить красоту своего окулиста, Клер Левики. Зрение быстро возвращается, но ...
Перевод: Профессиональный многоголосый, профессиональный двухголосый, авторский
Язык субтитров: английский (SRT)
Вид субтитров: Вшитые (отключаемые)

Продолжительность: 01:47:17
Качество видео: BDRip (1080p)
Видеокодек: MPEG-4 AVC
Битрейт видео: ~14.5 Мбит/с
Размер кадра: 1920x796
Аудио:
1. Русский AC3 5.1, 48 khz, 640 kbps |Многоголосый|
2. Русский AC3 5.1, 48 khz, 640 kbps |Двухголосый (Супербит)|
3. Русский AC3 5.1, 48 khz, 640 kbps |Живов|
4. Русский AC3 2.0, 48 khz, 256 kbps |Хрусталев|
5. Английский AC3 5.1, 48 khz, 640 kbps

MediaInfo:

Общее
Уникальный идентификатор : 220132428006160998879808165238143205317 (0xA59BF6A6CE998507A6566EBB47743FC5)
Полное имя : C:\NNM\Дни грома\Dni groma 1990 BDDRip 1080p.mkv
Формат : Matroska
Версия формата : Version 2
Размер файла : 13,0 Гбайт
Продолжительность : 1 ч. 47 м.
Общий поток : 17,3 Мбит/сек
Программа кодирования : mkvmerge v3.4.0 ('Rapunzel') сборка от May 15 2010 09:38:20
Библиотека кодирования : libebml v0.8.0 + libmatroska v0.9.0
Видео
Идентификатор : 1
Формат : AVC
Формат/Информация : Advanced Video Codec
Профиль формата : [url=mailto:[email protected]][email protected][/url]
Параметр CABAC формата : Да
Параметр ReFrames формата : 5 кадров
Идентификатор кодека : V_MPEG4/ISO/AVC
Продолжительность : 1 ч. 47 м.
Битрейт : 14,5 Мбит/сек
Ширина : 1920 пикселей
Высота : 796 пикселей
Соотношение сторон : 2,40:1
Частота кадров : 23,976 кадра/сек
Цветовое пространство : YUV
Субдискретизация насыщенности : 4:2:0
Битовая глубина : 8 бит
Тип развёртки : Прогрессивная
Бит/(Пиксели*Кадры) : 0.396
Размер потока : 10,6 Гбайт (82%)
Библиотека кодирования : x264 core 115 r1995+537 0dc51e3
Настройки программы : cabac=1 / ref=5 / deblock=1:-3:-3 / analyse=0x3:0x133 / me=umh / subme=10 / psy=1 / fade_compensate=0.00 / psy_rd=0.90:0.00 / mixed_ref=1 / me_range=32 / chroma_me=1 / trellis=2 / 8x8dct=1 / cqm=0 / deadzone=21,11 / fast_pskip=0 / chroma_qp_offset=-2 / threads=3 / sliced_threads=0 / nr=0 / decimate=1 / interlaced=0 / bluray_compat=0 / constrained_intra=0 / fgo=0 / bframes=12 / b_pyramid=2 / b_adapt=2 / b_bias=0 / direct=3 / weightb=1 / open_gop=0 / weightp=2 / keyint=250 / keyint_min=23 / scenecut=40 / intra_refresh=0 / rc=2pass / mbtree=0 / bitrate=14500 / ratetol=1.0 / qcomp=0.60 / qpmin=0 / qpmax=69 / qpstep=4 / cplxblur=20.0 / qblur=0.5 / ip_ratio=1.40 / pb_ratio=1.30 / aq=1:1.00
Язык : English
Default : Да
Forced : Нет
Аудио #1
Идентификатор : 2
Формат : AC-3
Формат/Информация : Audio Coding 3
Расширение режима : CM (complete main)
Идентификатор кодека : A_AC3
Продолжительность : 1 ч. 47 м.
Вид битрейта : Постоянный
Битрейт : 640 Кбит/сек
Каналы : 6 каналов
Расположение каналов : Front: L C R, Side: L R, LFE
Частота : 48,0 КГц
Битовая глубина : 16 бит
Метод сжатия : С потерями
Размер потока : 491 Мбайт (4%)
Заголовок : Многоголосый, AC3 5.1, 640 kbps
Язык : Russian
Default : Да
Forced : Нет
Аудио #2
Идентификатор : 3
Формат : AC-3
Формат/Информация : Audio Coding 3
Расширение режима : CM (complete main)
Идентификатор кодека : A_AC3
Продолжительность : 1 ч. 47 м.
Вид битрейта : Постоянный
Битрейт : 640 Кбит/сек
Каналы : 6 каналов
Расположение каналов : Front: L C R, Side: L R, LFE
Частота : 48,0 КГц
Битовая глубина : 16 бит
Метод сжатия : С потерями
Размер потока : 491 Мбайт (4%)
Заголовок : Двухголосый (Супербит), AC3 5.1, 640 kbps
Язык : Russian
Default : Нет
Forced : Нет
Аудио #3
Идентификатор : 4
Формат : AC-3
Формат/Информация : Audio Coding 3
Расширение режима : CM (complete main)
Идентификатор кодека : A_AC3
Продолжительность : 1 ч. 47 м.
Вид битрейта : Постоянный
Битрейт : 640 Кбит/сек
Каналы : 6 каналов
Расположение каналов : Front: L C R, Side: L R, LFE
Частота : 48,0 КГц
Битовая глубина : 16 бит
Метод сжатия : С потерями
Размер потока : 491 Мбайт (4%)
Заголовок : Живов, AC3 5.1, 640 kbps
Язык : Russian
Default : Нет
Forced : Нет
Аудио #4
Идентификатор : 5
Формат : AC-3
Формат/Информация : Audio Coding 3
Расширение режима : CM (complete main)
Идентификатор кодека : A_AC3
Продолжительность : 1 ч. 47 м.
Вид битрейта : Постоянный
Битрейт : 256 Кбит/сек
Каналы : 2 канала
Расположение каналов : Front: L R
Частота : 48,0 КГц
Битовая глубина : 16 бит
Метод сжатия : С потерями
Размер потока : 196 Мбайт (1%)
Заголовок : Хрусталев, AC3 2.0, 256 kbps
Язык : Russian
Default : Нет
Forced : Нет
Аудио #5
Идентификатор : 6
Формат : AC-3
Формат/Информация : Audio Coding 3
Расширение режима : CM (complete main)
Идентификатор кодека : A_AC3
Продолжительность : 1 ч. 47 м.
Вид битрейта : Постоянный
Битрейт : 640 Кбит/сек
Каналы : 6 каналов
Расположение каналов : Front: L C R, Side: L R, LFE
Частота : 48,0 КГц
Битовая глубина : 16 бит
Метод сжатия : С потерями
Размер потока : 491 Мбайт (4%)
Заголовок : AC3 5.1, 640 kbps
Язык : English
Default : Нет
Forced : Нет
Текст
Идентификатор : 7
Формат : UTF-8
Идентификатор кодека : S_TEXT/UTF8
Идентификатор кодека/Информация : UTF-8 Plain Text
Язык : English
Default : Нет
Forced : Нет
Меню
00:00:00.000 : en:Opening Credits
00:03:40.011 : en:Build Me A Car
00:05:37.212 : en:The New Driver
00:12:52.146 : en:Building Perfection
00:14:36.542 : en:Rubbing Is Racing
00:18:28.148 : en:Trust In Each Other
00:24:50.112 : en:Special Tires
00:31:41.148 : en:Concealed Weapon
00:36:26.307 : en:When Worlds Collide
00:41:14.053 : en:Mistaken Identity
00:45:05.701 : en:Clearance Denied
00:51:03.516 : en:Car Trouble
00:53:33.333 : en:Attention Getter
00:56:15.745 : en:A Thorough Physical
01:01:39.193 : en:Confronting Reality
01:04:13.138 : en:Competitive Spirits
01:11:32.493 : en:Out Of Control
01:15:22.973 : en:Drive My Car
01:20:37.287 : en:Last Chance
01:27:29.657 : en:Daytona
01:33:13.041 : en:Start Your Engines
01:38:40.493 : en:And The Winner Is...
01:43:10.513 : en:End Credits
Скриншоты:          

_________________
Вне форума [Профиль] [ЛС]
Показать сообщения:    
Ответить на тему

Текущее время: Сегодня 22:18

Часовой пояс: GMT + 3



Вы не можете начинать темы
Вы не можете отвечать на сообщения
Вы не можете редактировать свои сообщения
Вы не можете удалять свои сообщения
Вы не можете голосовать в опросах
Вы не можете прикреплять файлы к сообщениям
Вы не можете скачивать файлы