Сегодня идет свободное скачивание без начисления Download

Самурай / Le samouraï (1967) BDRip

Ответить на тему
 
Автор
Сообщение

Omen ®

Стаж: 4 года 1 месяц

Сообщений: 194390

Торрент-статистика

Пост 25-Янв-2012 18:10

[Цитировать]

Самурай / Le samouraï- Русское название: Самурай
Оригинальное название: Le samouraï
Год выпуска: 1967
Жанр: Драма, Криминал, Детектив-Описание фильма:
Джефф Кастелло – профессиональный убийца, который считается лучшим специалистом в своем деле. Он с легкостью берется за самые сложные задания, быстро и хладнокровно их выполняет, создавая себе безупречное алиби. Но на этот раз вышло иначе. Получив заказ убить одного известного и властного человека, Джефф, вроде бы, безукоризненно выполняет задание, но вскоре выясняется, что у полиции есть свидетель, видевший наемника. И теперь Джеффа, помимо полиции, разыскивают заказчики этого рокового убийства, чтобы избавится от слишком много знающего киллера.-Режиссер: Жан-Пьер Мельвиль
Актеры:
Катрин Журдан, Роже Фраде, Франсуа Перье, Ален Делон, Натали Делон, Кати Розье, Жак Леруа, Мишель Буарон, Робер Фавар, Жан-Пьер Позье-Продолжительность: 01:40:48
Перевод: Многоголосый закадровый- -Дата мировой премьеры: 25.10.67-Видеокодек: Xvid
Битрейт видео: ~1659 Кбит/сек
Размер кадра: 720x384
Качество видео: BDRip
Аудиокодек: AC3
Битрейт аудио: 192 Кбит/сек, 2 канала -

MediaInfo:

Код:
Формат                           : AVI
Формат/Информация                : Audio Video Interleave
Размер файла                     : 1,37 Гбайт
Продолжительность                : 1 ч. 45 м.
Общий поток                      : 1860 Кбит/сек
Программа кодирования            : VirtualDubModRus 1.5.10.2 (build 2542/release)
Библиотека кодирования           : VirtualDubMod build 2542/release
Видео
Идентификатор                    : 0
Формат                           : MPEG-4 Visual
Профиль формата                  : Advanced [email protected]
Параметр BVOP формата            : 2
Параметр QPel формата            : Нет
Параметр GMC формата             : Без точки перехода
Параметр матрицы формата         : Default (H.263)
Режим смешивания                 : Сжатый битовый поток
Идентификатор кодека             : XVID
Идентификатор кодека/Подсказка   : XviD
Продолжительность                : 1 ч. 45 м.
Битрейт                          : 1659 Кбит/сек
Ширина                           : 720 пикселей
Высота                           : 384 пикселя
Соотношение сторон               : 1,875
Частота кадров                   : 23,976 кадра/сек
Цветовое пространство            : YUV
Субдискретизация насыщенности    : 4:2:0
Битовая глубина                  : 8 бит
Тип развёртки                    : Прогрессивная
Метод сжатия                     : С потерями
Бит/(Пиксели*Кадры)              : 0.250
Размер потока                    : 1,22 Гбайт (89%)
Библиотека кодирования           : XviD 64
Аудио
Идентификатор                    : 1
Формат                           : AC-3
Формат/Информация                : Audio Coding 3
Расширение режима                : CM (complete main)
Идентификатор кодека             : 2000
Продолжительность                : 1 ч. 45 м.
Вид битрейта                     : Постоянный
Битрейт                          : 192 Кбит/сек
Каналы                           : 2 канала
Расположение каналов             : Front: L R
Частота                          : 48,0 КГц
Битовая глубина                  : 16 бит
Метод сжатия                     : С потерями
Размер потока                    : 145 Мбайт (10%)
Выравнивание                     : Разделение по промежуткам
Продолжительность промежутка     : 42  мс. (1,00 видеокадр)
Время предзагрузки промежутка    : 500  мс.
Скриншоты:
           
Вне форума [Профиль] [ЛС]

Dracula

Стаж: 3 года 1 месяц

Сообщений: 9768

Торрент-статистика

Пост 29-Янв-2012 13:38 (спустя 3 дня)

Топик был перенесен из форума Зарубежное кино (HD Video) в форум Фильмы до 2000 года



Delia
 
Показать сообщения:    
Ответить на тему

Текущее время: Сегодня 14:55

Часовой пояс: GMT + 3



Вы не можете начинать темы
Вы не можете отвечать на сообщения
Вы не можете редактировать свои сообщения
Вы не можете удалять свои сообщения
Вы не можете голосовать в опросах
Вы не можете прикреплять файлы к сообщениям
Вы не можете скачивать файлы