Сегодня идет свободное скачивание без начисления Download

Золотые копи / La collina degli stivali / Boot Hill (1969) DVDRip

Ответить на тему
 
Автор
Сообщение

Omen ®

Стаж: 4 года 1 месяц

Сообщений: 194394

Торрент-статистика

Пост 25-Янв-2012 21:38

[Цитировать]

Золотые копи / La collina degli stivali / Boot Hill (1969) DVDRip-«Those Trinity Boys Are Back! And As Wild As Ever» Русское название: Золотые копи
Оригинальное название: La collina degli stivali / Boot Hill
Год выпуска: 1969
Cтрана: Италия
Производство: San Marco S.P.A./Crono S.P.A
Жанр: Комедия, Вестерн
Рейтинг PG: - Рекомендуется присутствие родителей

Описание фильма:
Дикий Запад, времена золотой лихорадки… Банда Финча, нанятая крупными владельцами приисков, гоняется за мелкими золотоискателями, отстреливая их по одному и отбирая их наделы. Но однажды они сталкиваются с крутым парнем, не желающим просто так отдаватьсвою землю…
Режиссер: Джузеппе Колицци
Актеры: Вуди Строуд, Теренс Хилл, Бад Спенсер, Эдуардо Цианелли, Глауко Онорато, Альберто Дэлль'Акква, Виктор Буоно, Лайонел Стэндер, Лесли Бэйли
Продолжительность: 01:31:20
Перевод: Одноголосый закадровый

Дата мировой премьеры: 20.12.1969

Премьеры:

20 декабря 1969 Италия
7 августа 1970 Франция
28 августа 1970 Германия (ФРГ)
24 марта 1972 Финляндия
5 июня 1972 Швеция
19 октября 1972 США
Бисмарк, Северная Дакота
18 января 1977 Норвегия
Переиздание
28 июля 1984 Филиппины
Давао, Филиппины
14 мая 1998 Япония
Премьера на видео
Ноябрь 2001 Франция
-Видеокодек: Xvid
Битрейт видео: ~1880kb/s
Размер кадра: 720x320
Качество видео: DVDRip
Аудиокодек: AC3
Битрейт аудио: 256kb/s 2ch-

MediaInfo:

Код:
Общее
Полное имя                       : I:\uTorrent\Boot Hill(1969)[XviD]DVDRip.avi
Формат                           : AVI
Формат/Информация                : Audio Video Interleave
Размер файла                     : 1,37 Гбайт
Продолжительность                : 1 ч. 31 м.
Общий поток                      : 2144 Кбит/сек
Программа кодирования            : VirtualDubMod 1.5.4.1 (build 2178/release)
Библиотека кодирования           : VirtualDubMod build 2178/release
Видео
Идентификатор                    : 0
Формат                           : MPEG-4 Visual
Профиль формата                  : Advanced [email protected]
Параметр BVOP формата            : 1
Параметр QPel формата            : Нет
Параметр GMC формата             : Без точки перехода
Параметр матрицы формата         : Выборочная
Идентификатор кодека             : XVID
Идентификатор кодека/Подсказка   : XviD
Продолжительность                : 1 ч. 31 м.
Битрейт                          : 1881 Кбит/сек
Ширина                           : 720 пикселей
Высота                           : 320 пикселей
Соотношение сторон               : 2,25:1
Частота кадров                   : 25,000 кадров/сек
Цветовое пространство            : YUV
Субдискретизация насыщенности    : 4:2:0
Битовая глубина                  : 8 бит
Тип развёртки                    : Прогрессивная
Метод сжатия                     : С потерями
Бит/(Пиксели*Кадры)              : 0.327
Размер потока                    : 1,20 Гбайт (88%)
Библиотека кодирования           : XviD 1.2.1 (UTC 2008-12-04)
Аудио
Идентификатор                    : 1
Формат                           : AC-3
Формат/Информация                : Audio Coding 3
Расширение режима                : CM (complete main)
Идентификатор кодека             : 2000
Продолжительность                : 1 ч. 31 м.
Вид битрейта                     : Постоянный
Битрейт                          : 256 Кбит/сек
Каналы                           : 2 канала
Расположение каналов             : Front: L R
Частота                          : 48,0 КГц
Битовая глубина                  : 16 бит
Метод сжатия                     : С потерями
Размер потока                    : 167 Мбайт (12%)
Выравнивание                     : Разделение по промежуткам
Продолжительность промежутка     : 96  мс. (2,40 видеокадра)
Время предзагрузки промежутка    : 96  мс.
Язык                             : Russian
-Скриншоты:
         
         
Вне форума [Профиль] [ЛС]
Похожие темы
Форум Тема Автор Торрент Отв. Посл. сообщение
./templates/default/images/folder_dl.gif FPS (1st Person) Serious Sam Gold Edition / Крутой Сэм Золотое Издание (2001-2010) (1С-СофтКлаб / Новый Диск) (ENG+RUS) [RePack] от SeRaph1 Baracuda
1 | 0

2 | 2590

29

2012-05-30 20:01
Diavol Последнее
./templates/default/images/folder_dl.gif Разное Алексей Шляхторов | Как Золотая Орда озолотила Русь. Не верьте лжи о "татаро-монгольском Иге"! (2014) [FB2] Omen
1 | 0

0 | 962

6

2014-10-06 16:32
Omen Последнее
./templates/default/images/folder_dl.gif Психология, Тренинг, Саморазвитие Золотой фонд актерского мастерства - Кипнис М. - Актерский тренинг. Более 100 игр, упражнений и этюдов, которые помогут вам стать первоклассным актером [2008, PDF, DOC, RUS] Omen
1 | 0

0 | 211

2

2015-05-03 06:00
Omen Последнее
./templates/default/images/folder_dl.gif Приключения, детектив, боевик, триллер Маклин Алистер – Золотое Рандеву [Князев Игорь, 2015 г., 192 kbps, MP3] Omen
1 | 0

0 | 152

3

2015-08-07 15:00
Omen Последнее
./templates/default/images/folder_dl.gif Заготовки, виньетки, костюмы, шаблоны и рамки Шаблоны - Перекидной календарь 2016 - 12 золотых правил Рокфеллера [PSD, JPG] [email protected]
1 | 0

0 | 995

6

2016-01-20 22:54
[email protected] Последнее
./templates/default/images/folder_dl.gif Строительство, Дизайн и Ремонт Робин Джеймсон - Большая энциклопедия мастера золотые руки [2016г., PDF, RUS] XP1971
1 | 0

0 | 345

5

2016-11-09 22:46
XP1971 Последнее
Показать сообщения:    
Ответить на тему

Текущее время: Сегодня 22:50

Часовой пояс: GMT + 3



Вы не можете начинать темы
Вы не можете отвечать на сообщения
Вы не можете редактировать свои сообщения
Вы не можете удалять свои сообщения
Вы не можете голосовать в опросах
Вы не можете прикреплять файлы к сообщениям
Вы не можете скачивать файлы