Сегодня идет свободное скачивание без начисления Download

Инферно / Inferno (Джон Г. Эвилдсен / John G. Avildsen) [1999, США, Боевик, HDRip] 2xAVO

Ответить на тему
 
Автор
Сообщение

nsa1977 ®

Пол:

Стаж: 6 лет 5 месяцев

Сообщений: 1682

Откуда: Пенза

Торрент-статистика

Пост 29-Янв-2012 02:16

[Цитировать]

Инферно / Inferno

Страна: США
Жанр: Боевик
Год выпуска: 1999
Продолжительность: 01:34:57-Перевод: Авторский (одноголосый закадровый) Юрий Сербин
Перевод 2: Авторский (одноголосый закадровый) Сергей Визгунов
Cубтитры: нет
Режиссер: Джон Г. Эвилдсен / John G. Avildsen-В ролях: Жан-Клод Ван Дамм / Jean-Claude Van Damme, Лэрри Дрэйк / Larry Drake, Пэт Морита / Pat Morita, Винсент Скьявелли / Vincent Schiavelli, Джонатан Эвилдсен / Jonathan Avildsen, Дэнни Трехо / Danny Trejo-Описание: Бывший спецназовец, потерявший вкус к жизни, оказавшись в забытом богом штате Невада, под палящим солнцем пустыни, нещадно набравшись, решает покончить жизнь самоубийством. Тут и происходит его встреча с бандой, терроризирующей расположенный рядом заброшенный городок. Избив и забрав у Эдди мотоцикл, бандиты оставили его на верную гибель без капли воды... Эдди повезло: его нашел и выходил старый отшельник (Трехо), являющийся по совместительству его бывшим сослуживцем...-Сэмпл-Качество видео: HDRip
Формат видео: AVI
Видео: Xvid 720x400 24.00fps~1993 kbps
Аудио: RUS: AC3 Dolby Digital, 48 kHz, 192.00 kbps, 2/0 (L,R) ch (Ю. Сербин)
Аудио 2: RUS: AC3 Dolby Digital, 48 kHz, 192.00 kbps, 2/0 (L,R) ch (C. Визгунов)(отдельным файлом)

MediaInfo

Общее
Полное имя : F:\Раздачи\Inferno.HDRip\Inferno.HDRip.Xvid.AC3.avi
Формат : AVI
Формат/Информация : Audio Video Interleave
Размер файла : 1,46 Гбайт
Продолжительность : 1 ч. 34 м.
Общий поток : 2194 Кбит/сек
Программа кодирования : VirtualDubMod 1.5.10.2 (build 2540/release)
Библиотека кодирования : VirtualDubMod build 2540/release
Видео
Идентификатор : 0
Формат : MPEG-4 Visual
Профиль формата : Advanced [email protected]
Параметр BVOP формата : 1
Параметр QPel формата : Да
Параметр GMC формата : Без точки перехода
Параметр матрицы формата : Выборочная
Идентификатор кодека : XVID
Идентификатор кодека/Подсказка : XviD
Продолжительность : 1 ч. 34 м.
Битрейт : 1993 Кбит/сек
Ширина : 720 пикселей
Высота : 400 пикселей
Соотношение сторон : 16:9
Частота кадров : 24,000 кадра/сек
Цветовое пространство : YUV
Субдискретизация насыщенности : 4:2:0
Битовая глубина : 8 бит
Тип развёртки : Прогрессивная
Метод сжатия : С потерями
Бит/(Пиксели*Кадры) : 0.288
Размер потока : 1,32 Гбайт (91%)
Библиотека кодирования : XviD 1.2.1 (UTC 2008-12-04)
Аудио
Идентификатор : 1
Формат : AC-3
Формат/Информация : Audio Coding 3
Расширение режима : CM (complete main)
Идентификатор кодека : 2000
Продолжительность : 1 ч. 34 м.
Вид битрейта : Постоянный
Битрейт : 192 Кбит/сек
Каналы : 2 канала
Расположение каналов : Front: L R
Частота : 48,0 КГц
Битовая глубина : 16 бит
Метод сжатия : С потерями
Размер потока : 130 Мбайт (9%)
Выравнивание : Разделение по промежуткам
Продолжительность промежутка : 42 мс. (1,00 видеокадр)
Время предзагрузки промежутка : 500 мс.
--          

_________________
Вне форума [Профиль] [ЛС]
Показать сообщения:    
Ответить на тему

Текущее время: Сегодня 13:09

Часовой пояс: GMT + 3



Вы не можете начинать темы
Вы не можете отвечать на сообщения
Вы не можете редактировать свои сообщения
Вы не можете удалять свои сообщения
Вы не можете голосовать в опросах
Вы не можете прикреплять файлы к сообщениям
Вы не можете скачивать файлы