Today is a free download without charge Download

Madeleine Peyroux - Keep Me in Your Heart For A While: The Best Of Madeleine Peyroux (2xCD) (2014) [FLAC|Lossless]<Vocal Jazz>

Reply to topic
 
Author
Message

sashau ®

Gender:

Longevity: 7 years 11 months

Posts: 3497

Торрент-статистика

Post 14-Nov-2014 02:36

[Quote]

Madeleine Peyroux - Keep Me in Your Heart For A While:
The Best Of Madeleine Peyroux (2xCD)
- Жанр: Vocal Jazz
Носитель: CD
Страна-производитель диска: Germany
Год издания: 2014
Издатель (лейбл): Rounder
Номер по каталогу: 0888072361577-Аудиокодек: FLAC (*.flac)
Тип рипа: tracks+.cue
Битрейт аудио: lossless
Продолжительность: 00:54:00 + 00:54:11-Источник (релизер): собственный рип
Наличие сканов в содержимом раздачи: да-Треклист:
CD 1
01. Don't Wait Too Long (3:12)
02. You're Gonna Make Me Lonesome When You Go (3:27)
03. (Getting Some) Fun Out Of Life (3:14)
04. Between The Bars (3:46)
05. I'm All Right (3:30)
06. La Vie En Rose (3:22)
07. Half The Perfect World (4:23)
08. Dance Me To The End Of Love (3:58)
09. Smile (4:01)
10. Once In A While (4:02)
11. The Summer Wind (3:58)
12. Careless Love (3:53)
13. Guilty (3:55)
14. Desperadoes Under The Eaves (Extended Version) (5:20)

CD 2

01. Changing All Those Changes (3:12)
02. J'ai Deux Amors (2:57)
03. River Of Tears (5:22)
04. The Things I've Seen Today (3:44)
05. Damn The Circumstances (4:39)
06. La Javanaise (4:12)
07. The Kind You Can't Afford (4:00)
08. Bye Bye Love (3:29)
09. Walkin' After Midnight (4:50)
10. Standing On The Rooftop (5:47)
11. Instead (5:14)
12. Keep Me In Your Heart (first audio release) (3:35)
13. This Is Heaven To Me (3:11)

Лог создания рипа

CD 1

Код:
Exact Audio Copy V1.0 beta 3 from 29. August 2011
Отчёт EAC об извлечении, выполненном 12. ноября 2014, 14:52
Madeleine Peyroux / Keep Me in Your Heart For A While: The Best Of Madeleine Peyroux
Дисковод: PIONEER DVD-RW  DVR-218L   Adapter: 0  ID: 0
Режим чтения                 : Достоверность
Использование точного потока : Да
Отключение кэша аудио        : Да
Использование указателей C2  : Нет
Коррекция смещения при чтении                     : 6
Способность читать области Lead-in и Lead-out     : Нет
Заполнение пропущенных сэмплов тишиной            : Да
Удаление блоков с тишиной в начале и конце        : Нет
При вычислениях CRC использовались нулевые сэмплы : Да
Интерфейс                                         : Встроенный Win32-интерфейс для Win NT/2000
Обработка зазоров                                 : Добавлено к предыдущему треку
Выходной формат          : Пользовательский кодировщик
Выбранный битрейт        : 128 kBit/s
Качество                 : Высокий
Добавление ID3-тега      : Нет
Утилита сжатия           : C:\Program Files (x86)\Exact Audio Copy\Flac\flac.exe
Дополнительные параметры : -V -7 -T "Genre=%genre%" -T "Artist=%artist%" -T "Title=%title%" -T "Album=%albumtitle%" -T "Date=%year%" -T "Tracknumber=%tracknr%" -T "Comment=%comment%" %source%
TOC извлечённого CD
     Трек |   Старт  | Длительность | Начальный сектор | Конечный сектор
    ---------------------------------------------------------------------
       1  |  0:00.00 |    3:12.15   |           0      |      14414
       2  |  3:12.15 |    3:26.42   |       14415      |      29906
       3  |  6:38.57 |    3:14.19   |       29907      |      44475
       4  |  9:53.01 |    3:45.49   |       44476      |      61399
       5  | 13:38.50 |    3:29.45   |       61400      |      77119
       6  | 17:08.20 |    3:22.17   |       77120      |      92286
       7  | 20:30.37 |    4:22.67   |       92287      |     112003
       8  | 24:53.29 |    3:58.03   |      112004      |     129856
       9  | 28:51.32 |    4:01.05   |      129857      |     147936
      10  | 32:52.37 |    4:01.64   |      147937      |     166075
      11  | 36:54.26 |    3:57.71   |      166076      |     183921
      12  | 40:52.22 |    3:53.12   |      183922      |     201408
      13  | 44:45.34 |    3:55.00   |      201409      |     219033
      14  | 48:40.34 |    5:19.65   |      219034      |     243023
Трек  1
     Имя файла F:\_МУЗЫКА\Madeleine Peyroux - The Best Of Madeleine Peyroux (2014)\CD1\01 Don't Wait Too Long.wav
     Длина предзазора  0:00:02.00
     Пиковый уровень 83.2 %
     Скорость извлечения 0.9 X
     Качество трека 99.9 %
     CRC теста 814FD8A7
     CRC копии 814FD8A7
     Точное извлечение (достоверность 1)  [8F835C8B]  (AR v2)
     Копирование... OK
Трек  2
     Имя файла F:\_МУЗЫКА\Madeleine Peyroux - The Best Of Madeleine Peyroux (2014)\CD1\02 You're Gonna Make Me Lonesome When You G.wav
     Пиковый уровень 83.2 %
     Скорость извлечения 1.1 X
     Качество трека 100.0 %
     CRC теста BABA08C7
     CRC копии BABA08C7
     Точное извлечение (достоверность 1)  [19EB8520]  (AR v2)
     Копирование... OK
Трек  3
     Имя файла F:\_МУЗЫКА\Madeleine Peyroux - The Best Of Madeleine Peyroux (2014)\CD1\03 (Getting Some) Fun Out Of Life.wav
     Пиковый уровень 99.8 %
     Скорость извлечения 1.2 X
     Качество трека 100.0 %
     CRC теста 40C0E0A0
     CRC копии 40C0E0A0
     Точное извлечение (достоверность 1)  [100D5B0D]  (AR v2)
     Копирование... OK
Трек  4
     Имя файла F:\_МУЗЫКА\Madeleine Peyroux - The Best Of Madeleine Peyroux (2014)\CD1\04 Between The Bars.wav
     Пиковый уровень 81.3 %
     Скорость извлечения 1.3 X
     Качество трека 100.0 %
     CRC теста 83F73355
     CRC копии 83F73355
     Точное извлечение (достоверность 1)  [CC98EED1]  (AR v2)
     Копирование... OK
Трек  5
     Имя файла F:\_МУЗЫКА\Madeleine Peyroux - The Best Of Madeleine Peyroux (2014)\CD1\05 I'm All Right.wav
     Пиковый уровень 98.8 %
     Скорость извлечения 1.4 X
     Качество трека 100.0 %
     CRC теста 05E16287
     CRC копии 05E16287
     Точное извлечение (достоверность 1)  [5512270F]  (AR v2)
     Копирование... OK
Трек  6
     Имя файла F:\_МУЗЫКА\Madeleine Peyroux - The Best Of Madeleine Peyroux (2014)\CD1\06 La Vie En Rose.wav
     Пиковый уровень 99.8 %
     Скорость извлечения 1.5 X
     Качество трека 100.0 %
     CRC теста D06664B5
     CRC копии D06664B5
     Точное извлечение (достоверность 1)  [560482C0]  (AR v2)
     Копирование... OK
Трек  7
     Имя файла F:\_МУЗЫКА\Madeleine Peyroux - The Best Of Madeleine Peyroux (2014)\CD1\07 Half The Perfect World.wav
     Пиковый уровень 98.8 %
     Скорость извлечения 1.6 X
     Качество трека 100.0 %
     CRC теста 73B12185
     CRC копии 73B12185
     Точное извлечение (достоверность 1)  [1E1FD860]  (AR v2)
     Копирование... OK
Трек  8
     Имя файла F:\_МУЗЫКА\Madeleine Peyroux - The Best Of Madeleine Peyroux (2014)\CD1\08 Dance Me To The End Of Love.wav
     Пиковый уровень 82.2 %
     Скорость извлечения 1.5 X
     Качество трека 99.9 %
     CRC теста C69E025F
     CRC копии C69E025F
     Точное извлечение (достоверность 1)  [7A45DFF6]  (AR v2)
     Копирование... OK
Трек  9
     Имя файла F:\_МУЗЫКА\Madeleine Peyroux - The Best Of Madeleine Peyroux (2014)\CD1\09 Smile.wav
     Пиковый уровень 99.8 %
     Скорость извлечения 1.8 X
     Качество трека 100.0 %
     CRC теста 6C5F5374
     CRC копии 6C5F5374
     Точное извлечение (достоверность 1)  [5BD8B1A0]  (AR v2)
     Копирование... OK
Трек 10
     Имя файла F:\_МУЗЫКА\Madeleine Peyroux - The Best Of Madeleine Peyroux (2014)\CD1\10 Once In A While.wav
     Пиковый уровень 99.7 %
     Скорость извлечения 1.8 X
     Качество трека 100.0 %
     CRC теста F28AE69E
     CRC копии F28AE69E
     Точное извлечение (достоверность 1)  [92F981B9]  (AR v2)
     Копирование... OK
Трек 11
     Имя файла F:\_МУЗЫКА\Madeleine Peyroux - The Best Of Madeleine Peyroux (2014)\CD1\11 The Summer Wind.wav
     Пиковый уровень 99.8 %
     Скорость извлечения 1.9 X
     Качество трека 100.0 %
     CRC теста 7598749C
     CRC копии 7598749C
     Точное извлечение (достоверность 1)  [E6FB28C7]  (AR v2)
     Копирование... OK
Трек 12
     Имя файла F:\_МУЗЫКА\Madeleine Peyroux - The Best Of Madeleine Peyroux (2014)\CD1\12 Careless Love.wav
     Пиковый уровень 81.3 %
     Скорость извлечения 2.0 X
     Качество трека 100.0 %
     CRC теста 1175A6C2
     CRC копии 1175A6C2
     Точное извлечение (достоверность 1)  [16E35A2F]  (AR v2)
     Копирование... OK
Трек 13
     Имя файла F:\_МУЗЫКА\Madeleine Peyroux - The Best Of Madeleine Peyroux (2014)\CD1\13 Guilty.wav
     Пиковый уровень 99.8 %
     Скорость извлечения 2.0 X
     Качество трека 100.0 %
     CRC теста 566F30C7
     CRC копии 566F30C7
     Точное извлечение (достоверность 1)  [C48583A7]  (AR v2)
     Копирование... OK
Трек 14
     Имя файла F:\_МУЗЫКА\Madeleine Peyroux - The Best Of Madeleine Peyroux (2014)\CD1\14 Desperadoes Under The Eaves (Extended Version).wav
     Пиковый уровень 100.0 %
     Скорость извлечения 2.2 X
     Качество трека 100.0 %
     CRC теста 112A3FE2
     CRC копии 112A3FE2
     Точное извлечение (достоверность 1)  [7AACC12B]  (AR v2)
     Копирование... OK
Все треки извлечены точно
Ошибок не произошло
Конец отчёта

CD 2

Код:
Exact Audio Copy V1.0 beta 3 from 29. August 2011
Отчёт EAC об извлечении, выполненном 13. ноября 2014, 10:45
Madeleine Peyroux / Keep Me in Your Heart For A While: The Best Of Madeleine Peyroux (CD 2)
Дисковод: PIONEER DVD-RW  DVR-218L   Adapter: 0  ID: 0
Режим чтения                 : Достоверность
Использование точного потока : Да
Отключение кэша аудио        : Да
Использование указателей C2  : Нет
Коррекция смещения при чтении                     : 6
Способность читать области Lead-in и Lead-out     : Нет
Заполнение пропущенных сэмплов тишиной            : Да
Удаление блоков с тишиной в начале и конце        : Нет
При вычислениях CRC использовались нулевые сэмплы : Да
Интерфейс                                         : Встроенный Win32-интерфейс для Win NT/2000
Обработка зазоров                                 : Добавлено к предыдущему треку
Выходной формат          : Пользовательский кодировщик
Выбранный битрейт        : 128 kBit/s
Качество                 : Высокий
Добавление ID3-тега      : Нет
Утилита сжатия           : C:\Program Files (x86)\Exact Audio Copy\Flac\flac.exe
Дополнительные параметры : -V -7 -T "Genre=%genre%" -T "Artist=%artist%" -T "Title=%title%" -T "Album=%albumtitle%" -T "Date=%year%" -T "Tracknumber=%tracknr%" -T "Comment=%comment%" %source%
TOC извлечённого CD
     Трек |   Старт  | Длительность | Начальный сектор | Конечный сектор
    ---------------------------------------------------------------------
       1  |  0:00.00 |    3:11.44   |           0      |      14368
       2  |  3:11.44 |    2:56.38   |       14369      |      27606
       3  |  6:08.07 |    5:22.02   |       27607      |      51758
       4  | 11:30.09 |    3:43.39   |       51759      |      68522
       5  | 15:13.48 |    4:38.64   |       68523      |      89436
       6  | 19:52.37 |    4:12.17   |       89437      |     108353
       7  | 24:04.54 |    4:00.26   |      108354      |     126379
       8  | 28:05.05 |    3:29.22   |      126380      |     142076
       9  | 31:34.27 |    4:49.38   |      142077      |     163789
      10  | 36:23.65 |    5:46.67   |      163790      |     189806
      11  | 42:10.57 |    5:14.26   |      189807      |     213382
      12  | 47:25.08 |    3:35.25   |      213383      |     229532
      13  | 51:00.33 |    3:10.56   |      229533      |     243838
Трек  1
     Имя файла F:\_МУЗЫКА\Madeleine Peyroux - The Best Of Madeleine Peyroux (2014)\CD2\01 Changing All Those Changes.wav
     Длина предзазора  0:00:02.00
     Пиковый уровень 99.7 %
     Скорость извлечения 0.9 X
     Качество трека 99.9 %
     CRC теста CC394D0F
     CRC копии CC394D0F
     Точное извлечение (достоверность 1)  [58939767]  (AR v2)
     Копирование... OK
Трек  2
     Имя файла F:\_МУЗЫКА\Madeleine Peyroux - The Best Of Madeleine Peyroux (2014)\CD2\02 J'ai Deux Amors.wav
     Пиковый уровень 66.0 %
     Скорость извлечения 1.1 X
     Качество трека 100.0 %
     CRC теста B16A92FA
     CRC копии B16A92FA
     Точное извлечение (достоверность 1)  [D7F882CC]  (AR v2)
     Копирование... OK
Трек  3
     Имя файла F:\_МУЗЫКА\Madeleine Peyroux - The Best Of Madeleine Peyroux (2014)\CD2\03 River Of Tears.wav
     Пиковый уровень 94.9 %
     Скорость извлечения 1.2 X
     Качество трека 99.9 %
     CRC теста C10FF873
     CRC копии C10FF873
     Точное извлечение (достоверность 1)  [55CB84C6]  (AR v2)
     Копирование... OK
Трек  4
     Имя файла F:\_МУЗЫКА\Madeleine Peyroux - The Best Of Madeleine Peyroux (2014)\CD2\04 The Things I've Seen Today.wav
     Пиковый уровень 98.7 %
     Скорость извлечения 1.4 X
     Качество трека 100.0 %
     CRC теста 14B36EB2
     CRC копии 14B36EB2
     Точное извлечение (достоверность 1)  [E6BD411A]  (AR v2)
     Копирование... OK
Трек  5
     Имя файла F:\_МУЗЫКА\Madeleine Peyroux - The Best Of Madeleine Peyroux (2014)\CD2\05 Damn The Circumstances.wav
     Пиковый уровень 99.8 %
     Скорость извлечения 1.4 X
     Качество трека 99.9 %
     CRC теста BC2860DF
     CRC копии BC2860DF
     Точное извлечение (достоверность 1)  [60400E64]  (AR v2)
     Копирование... OK
Трек  6
     Имя файла F:\_МУЗЫКА\Madeleine Peyroux - The Best Of Madeleine Peyroux (2014)\CD2\06 La Javanaise.wav
     Пиковый уровень 98.8 %
     Скорость извлечения 1.6 X
     Качество трека 100.0 %
     CRC теста F8EFC7B5
     CRC копии F8EFC7B5
     Точное извлечение (достоверность 1)  [81F82F0C]  (AR v2)
     Копирование... OK
Трек  7
     Имя файла F:\_МУЗЫКА\Madeleine Peyroux - The Best Of Madeleine Peyroux (2014)\CD2\07 The Kind You Can't Afford.wav
     Пиковый уровень 98.8 %
     Скорость извлечения 1.5 X
     Качество трека 99.9 %
     CRC теста DE072861
     CRC копии DE072861
     Точное извлечение (достоверность 1)  [1479F320]  (AR v2)
     Копирование... OK
Трек  8
     Имя файла F:\_МУЗЫКА\Madeleine Peyroux - The Best Of Madeleine Peyroux (2014)\CD2\08 Bye Bye Love.wav
     Пиковый уровень 94.4 %
     Скорость извлечения 1.7 X
     Качество трека 100.0 %
     CRC теста D017D8A4
     CRC копии D017D8A4
     Точное извлечение (достоверность 1)  [65ACC5E4]  (AR v2)
     Копирование... OK
Трек  9
     Имя файла F:\_МУЗЫКА\Madeleine Peyroux - The Best Of Madeleine Peyroux (2014)\CD2\09 Walkin' After Midnight.wav
     Пиковый уровень 99.8 %
     Скорость извлечения 1.7 X
     Качество трека 99.9 %
     CRC теста 00F4DEA6
     CRC копии 00F4DEA6
     Точное извлечение (достоверность 1)  [EC3CE12F]  (AR v2)
     Копирование... OK
Трек 10
     Имя файла F:\_МУЗЫКА\Madeleine Peyroux - The Best Of Madeleine Peyroux (2014)\CD2\10 Standing On The Rooftop.wav
     Пиковый уровень 98.6 %
     Скорость извлечения 1.8 X
     Качество трека 99.9 %
     CRC теста F9BE548B
     CRC копии F9BE548B
     Точное извлечение (достоверность 1)  [C0EB24D5]  (AR v2)
     Копирование... OK
Трек 11
     Имя файла F:\_МУЗЫКА\Madeleine Peyroux - The Best Of Madeleine Peyroux (2014)\CD2\11 Instead.wav
     Пиковый уровень 100.0 %
     Скорость извлечения 2.1 X
     Качество трека 100.0 %
     CRC теста 343D551B
     CRC копии 343D551B
     Точное извлечение (достоверность 1)  [05E39012]  (AR v2)
     Копирование... OK
Трек 12
     Имя файла F:\_МУЗЫКА\Madeleine Peyroux - The Best Of Madeleine Peyroux (2014)\CD2\12 Keep Me In Your Heart (first audio release).wav
     Пиковый уровень 99.8 %
     Скорость извлечения 2.0 X
     Качество трека 100.0 %
     CRC теста 670950BB
     CRC копии 670950BB
     Точное извлечение (достоверность 1)  [7DE1F7C2]  (AR v2)
     Копирование... OK
Трек 13
     Имя файла F:\_МУЗЫКА\Madeleine Peyroux - The Best Of Madeleine Peyroux (2014)\CD2\13 This Is Heaven To Me.wav
     Пиковый уровень 78.5 %
     Скорость извлечения 2.1 X
     Качество трека 100.0 %
     CRC теста 2585D4E2
     CRC копии 2585D4E2
     Точное извлечение (достоверность 1)  [A18675C4]  (AR v2)
     Копирование... OK
Все треки извлечены точно
Ошибок не произошло
Конец отчёта

Содержание индексной карты (.CUE&#41;

CD 1

Код:
REM GENRE "Vocal Jazz"
REM DATE 2014
REM DISCID B30CA80E
REM COMMENT "ExactAudioCopy v1.0b3"
PERFORMER "Madeleine Peyroux"
TITLE "Keep Me in Your Heart For A While: The Best Of Madeleine Peyroux (CD 1)"
FILE "01 Don't Wait Too Long.wav" WAVE
  TRACK 01 AUDIO
    TITLE "Don't Wait Too Long"
    PERFORMER "Madeleine Peyroux"
    FLAGS DCP
    INDEX 01 00:00:00
FILE "02 You're Gonna Make Me Lonesome When You Go.wav" WAVE
  TRACK 02 AUDIO
    TITLE "You're Gonna Make Me Lonesome When You Go"
    PERFORMER "Madeleine Peyroux"
    FLAGS DCP
    INDEX 01 00:00:00
FILE "03 (Getting Some) Fun Out Of Life.wav" WAVE
  TRACK 03 AUDIO
    TITLE "(Getting Some) Fun Out Of Life"
    PERFORMER "Madeleine Peyroux"
    FLAGS DCP
    INDEX 01 00:00:00
FILE "04 Between The Bars.wav" WAVE
  TRACK 04 AUDIO
    TITLE "Between The Bars"
    PERFORMER "Madeleine Peyroux"
    FLAGS DCP
    INDEX 01 00:00:00
FILE "05 I'm All Right.wav" WAVE
  TRACK 05 AUDIO
    TITLE "I'm All Right"
    PERFORMER "Madeleine Peyroux"
    FLAGS DCP
    INDEX 01 00:00:00
FILE "06 La Vie En Rose.wav" WAVE
  TRACK 06 AUDIO
    TITLE "La Vie En Rose"
    PERFORMER "Madeleine Peyroux"
    FLAGS DCP
    INDEX 01 00:00:00
FILE "07 Half The Perfect World.wav" WAVE
  TRACK 07 AUDIO
    TITLE "Half The Perfect World"
    PERFORMER "Madeleine Peyroux"
    FLAGS DCP
    INDEX 01 00:00:00
FILE "08 Dance Me To The End Of Love.wav" WAVE
  TRACK 08 AUDIO
    TITLE "Dance Me To The End Of Love"
    PERFORMER "Madeleine Peyroux"
    FLAGS DCP
    INDEX 01 00:00:00
FILE "09 Smile.wav" WAVE
  TRACK 09 AUDIO
    TITLE "Smile"
    PERFORMER "Madeleine Peyroux"
    FLAGS DCP
    INDEX 01 00:00:00
FILE "10 Once In A While.wav" WAVE
  TRACK 10 AUDIO
    TITLE "Once In A While"
    PERFORMER "Madeleine Peyroux"
    FLAGS DCP
    INDEX 01 00:00:00
FILE "11 The Summer Wind.wav" WAVE
  TRACK 11 AUDIO
    TITLE "The Summer Wind"
    PERFORMER "Madeleine Peyroux"
    FLAGS DCP
    INDEX 01 00:00:00
FILE "12 Careless Love.wav" WAVE
  TRACK 12 AUDIO
    TITLE "Careless Love"
    PERFORMER "Madeleine Peyroux"
    FLAGS DCP
    INDEX 01 00:00:00
FILE "13 Guilty.wav" WAVE
  TRACK 13 AUDIO
    TITLE "Guilty"
    PERFORMER "Madeleine Peyroux"
    FLAGS DCP
    INDEX 01 00:00:00
FILE "14 Desperadoes Under The Eaves (Extended Version).wav" WAVE
  TRACK 14 AUDIO
    TITLE "Desperadoes Under The Eaves (Extended Version)"
    PERFORMER "Madeleine Peyroux"
    FLAGS DCP
    INDEX 01 00:00:00

CD 2

Код:
REM GENRE "Vocal Jazz"
REM DATE 2014
REM DISCID C10CB30D
REM COMMENT "ExactAudioCopy v1.0b3"
PERFORMER "Madeleine Peyroux"
TITLE "Keep Me in Your Heart For A While: The Best Of Madeleine Peyroux (CD 2)"
FILE "01 Changing All Those Changes.wav" WAVE
  TRACK 01 AUDIO
    TITLE "Changing All Those Changes"
    PERFORMER "Madeleine Peyroux"
    FLAGS DCP
    INDEX 01 00:00:00
FILE "02 J'ai Deux Amors.wav" WAVE
  TRACK 02 AUDIO
    TITLE "J'ai Deux Amors"
    PERFORMER "Madeleine Peyroux"
    FLAGS DCP
    INDEX 01 00:00:00
FILE "03 River Of Tears.wav" WAVE
  TRACK 03 AUDIO
    TITLE "River Of Tears"
    PERFORMER "Madeleine Peyroux"
    FLAGS DCP
    INDEX 01 00:00:00
FILE "04 The Things I've Seen Today.wav" WAVE
  TRACK 04 AUDIO
    TITLE "The Things I've Seen Today"
    PERFORMER "Madeleine Peyroux"
    FLAGS DCP
    INDEX 01 00:00:00
FILE "05 Damn The Circumstances.wav" WAVE
  TRACK 05 AUDIO
    TITLE "Damn The Circumstances"
    PERFORMER "Madeleine Peyroux"
    FLAGS DCP
    INDEX 01 00:00:00
FILE "06 La Javanaise.wav" WAVE
  TRACK 06 AUDIO
    TITLE "La Javanaise"
    PERFORMER "Madeleine Peyroux"
    FLAGS DCP
    INDEX 01 00:00:00
FILE "07 The Kind You Can't Afford.wav" WAVE
  TRACK 07 AUDIO
    TITLE "The Kind You Can't Afford"
    PERFORMER "Madeleine Peyroux"
    FLAGS DCP
    INDEX 01 00:00:00
FILE "08 Bye Bye Love.wav" WAVE
  TRACK 08 AUDIO
    TITLE "Bye Bye Love"
    PERFORMER "Madeleine Peyroux"
    FLAGS DCP
    INDEX 01 00:00:00
FILE "09 Walkin' After Midnight.wav" WAVE
  TRACK 09 AUDIO
    TITLE "Walkin' After Midnight"
    PERFORMER "Madeleine Peyroux"
    FLAGS DCP
    INDEX 01 00:00:00
FILE "10 Standing On The Rooftop.wav" WAVE
  TRACK 10 AUDIO
    TITLE "Standing On The Rooftop"
    PERFORMER "Madeleine Peyroux"
    FLAGS DCP
    INDEX 01 00:00:00
FILE "11 Instead.wav" WAVE
  TRACK 11 AUDIO
    TITLE "Instead"
    PERFORMER "Madeleine Peyroux"
    FLAGS DCP
    INDEX 01 00:00:00
FILE "12 Keep Me In Your Heart (first audio release).wav" WAVE
  TRACK 12 AUDIO
    TITLE "Keep Me In Your Heart (first audio release)"
    PERFORMER "Madeleine Peyroux"
    FLAGS DCP
    INDEX 01 00:00:00
FILE "13 This Is Heaven To Me.wav" WAVE
  TRACK 13 AUDIO
    TITLE "This Is Heaven To Me"
    PERFORMER "Madeleine Peyroux"
    FLAGS DCP
    INDEX 01 00:00:00

Лог проверки качества

CD 1

Код:
-----------------------
DON'T MODIFY THIS FILE
-----------------------
PERFORMER: auCDtect Task Manager, ver. 1.5.1RC6 build 1.5.1.7
Copyright (c) 2008-2010 y-soft. All rights reserved
http://y-soft.org
ANALYZER: auCDtect: CD records authenticity detector, version 0.8.2
Copyright (c) 2004 Oleg Berngardt. All rights reserved.
Copyright (c) 2004 Alexander Djourik. All rights reserved.
FILE: 14 Desperadoes Under The Eaves (Extended Version).flac
  Size: 33959162 Hash: 09FA074DF34D4A7DCE85935B6B9797A0 Accuracy: -m0
  Conclusion: CDDA 100%
  Signature: 66E00CB5F09A881EC119AB37DB889573C2F572BC
FILE: 13 Guilty.flac
  Size: 25842609 Hash: 94E628C01C227329B359F2BBABF6B8B2 Accuracy: -m0
  Conclusion: CDDA 100%
  Signature: 25359DC778880C3CA56F2DE1A8BD6EBB4F4EF92C
FILE: 12 Careless Love.flac
  Size: 23823667 Hash: 0F86BC8823BF03E2F756FED6BBC69752 Accuracy: -m0
  Conclusion: CDDA 100%
  Signature: 4DE4382BAA2BAA74C6F5CAC71E16892DB3716D7B
FILE: 11 The Summer Wind.flac
  Size: 24086652 Hash: E10D800E2F3DFDCCBFE716E0FE662236 Accuracy: -m0
  Conclusion: CDDA 100%
  Signature: 25B2589BD14EFFE2EF351BCA3310F3785D7D7971
FILE: 10 Once In A While.flac
  Size: 23238413 Hash: CAE7EE4D561C2C0C5BB5BA195E68650D Accuracy: -m0
  Conclusion: CDDA 100%
  Signature: 93FB24840C9BDE0E2839BE2E015DA8CA7563C7ED
FILE: 09 Smile.flac
  Size: 23893114 Hash: FE1DEEBCDCD67FE17FC108C09571B450 Accuracy: -m0
  Conclusion: CDDA 99%
  Signature: FEE541E58C4DB78360FBB1BE1BD869B1E4AAA044
FILE: 08 Dance Me To The End Of Love.flac
  Size: 26522972 Hash: 3357AB51A3E27C8C6036EEE2C910ABBF Accuracy: -m0
  Conclusion: CDDA 100%
  Signature: B40DAFD22EF8E5473EF0AEAB9D30C401FB5A86D0
FILE: 07 Half The Perfect World.flac
  Size: 26778561 Hash: 7F00DC17F6AEDF3AD47DC008D4875B8E Accuracy: -m0
  Conclusion: CDDA 100%
  Signature: 88606C7C44021506A1AB74A729918EE6B1DAD722
FILE: 06 La Vie En Rose.flac
  Size: 19508730 Hash: 62F98DF4CE9A4890D417F7F74DF6C9F7 Accuracy: -m0
  Conclusion: CDDA 100%
  Signature: C769D35E5EACCBF78FF6F842457AE8EF012D7A61
FILE: 05 I'm All Right.flac
  Size: 21395918 Hash: 429A8938D20426B00B71EFB32835687D Accuracy: -m0
  Conclusion: CDDA 100%
  Signature: 5D329045184256E6C39C3D4974F4A93CF3EC9284
FILE: 04 Between The Bars.flac
  Size: 23736941 Hash: 11EE81D3AE319666EC0C95CD3588B9B1 Accuracy: -m0
  Conclusion: CDDA 100%
  Signature: 3B3D776FCD1EE27C5B3D62B0FD913575DF48B507
FILE: 03 (Getting Some) Fun Out Of Life.flac
  Size: 20241959 Hash: 90CF30B72B6401A352FCDD79816CBD11 Accuracy: -m0
  Conclusion: CDDA 100%
  Signature: 5F643497CCEB9CEFFD94958F8F7444C63E3B1702
FILE: 02 You're Gonna Make Me Lonesome When You Go.flac
  Size: 22830171 Hash: 18CD5F69181F3A6A9275BA84FC47B921 Accuracy: -m0
  Conclusion: CDDA 100%
  Signature: AADAE0078735EC34233D490359DD7A9892C54A41
FILE: 01 Don't Wait Too Long.flac
  Size: 19750300 Hash: 450BFDAE8630E696696187C82ED7ECEC Accuracy: -m0
  Conclusion: CDDA 100%
  Signature: 9944691241BDB3E039D5C25D02E97E912140F40B

CD 2

Код:
-----------------------
DON'T MODIFY THIS FILE
-----------------------
PERFORMER: auCDtect Task Manager, ver. 1.5.1RC6 build 1.5.1.7
Copyright (c) 2008-2010 y-soft. All rights reserved
http://y-soft.org
ANALYZER: auCDtect: CD records authenticity detector, version 0.8.2
Copyright (c) 2004 Oleg Berngardt. All rights reserved.
Copyright (c) 2004 Alexander Djourik. All rights reserved.
FILE: 13 This Is Heaven To Me.flac
  Size: 20994487 Hash: E86928ED327BFD54F639D129C9F74899 Accuracy: -m0
  Conclusion: CDDA 100%
  Signature: DBEE81DFF2C678D7E402ECF1337F73A4522D2E75
FILE: 12 Keep Me In Your Heart (first audio release).flac
  Size: 18882827 Hash: D2BBA5E544911B6F20DC47C4F5481022 Accuracy: -m0
  Conclusion: CDDA 100%
  Signature: 1F571BB422C353B797635F5C287CE08CFB30E3D1
FILE: 11 Instead.flac
  Size: 29986110 Hash: 47D6E47558C960F9821B7878EA52457C Accuracy: -m0
  Conclusion: CDDA 99%
  Signature: 4C1677A68D46CDA66BFEB5FEE5DBC4198F2A6F8D
FILE: 10 Standing On The Rooftop.flac
  Size: 32499671 Hash: 8AA2C6755D3CF2B3BE9FA3B754953374 Accuracy: -m0
  Conclusion: CDDA 100%
  Signature: 131F1EB4D8655746107D3CC25FF6A6F943DC3BCE
FILE: 09 Walkin' After Midnight.flac
  Size: 30222103 Hash: FAF90B3E1DAE9941FE450986A1577D08 Accuracy: -m0
  Conclusion: CDDA 100%
  Signature: BC54516F83C9B3FB7C9942CC58F4D9E1F4D6F243
FILE: 08 Bye Bye Love.flac
  Size: 22574189 Hash: 5F63A3A76778905BC9438C7F69E692E8 Accuracy: -m0
  Conclusion: CDDA 100%
  Signature: 2F79EBDC4524AA165AD104FB2B21C3AFCA8AB4D8
FILE: 07 The Kind You Can't Afford.flac
  Size: 22905201 Hash: 502872F440E003754A45073491938243 Accuracy: -m0
  Conclusion: CDDA 100%
  Signature: 3B72F0B79070A2B8AA2F3974C426FBA5EDD0939E
FILE: 06 La Javanaise.flac
  Size: 22865750 Hash: A9FA2BB119E839D31F8E9AB20B08BEA1 Accuracy: -m0
  Conclusion: CDDA 99%
  Signature: 67072712707540BEF9A4F788A7319AC8CB9C4BBE
FILE: 05 Damn The Circumstances.flac
  Size: 27110641 Hash: E558A5BDDA0CDE9B0357830ABE83933B Accuracy: -m0
  Conclusion: CDDA 100%
  Signature: 289B083D44862532E52421935FEDC5C7CA205049
FILE: 04 The Things I've Seen Today.flac
  Size: 19726228 Hash: E98DA930A5FC28F2A38D057964BA5E63 Accuracy: -m0
  Conclusion: CDDA 100%
  Signature: 011ECA2B3F39BFE4725951CC0D2BE83148858D8B
FILE: 03 River Of Tears.flac
  Size: 31605780 Hash: 13572880CAF6724538D2126DEAC1717D Accuracy: -m0
  Conclusion: CDDA 100%
  Signature: 36AB6C7714F4B5A1103D5F31EB3E6AC76324ED36
FILE: 02 J'ai Deux Amors.flac
  Size: 17874644 Hash: 2AF3EA2CEEAEF55D1B60474C52F0CB48 Accuracy: -m0
  Conclusion: CDDA 100%
  Signature: 513197AC6A7BB2516CA5A5C056D57B438A18FBC0
FILE: 01 Changing All Those Changes.flac
  Size: 20268948 Hash: 4B3B73ECD420D69F660C284532F448F9 Accuracy: -m0
  Conclusion: CDDA 100%
  Signature: D4A27C67197B830D128BC05DF43E7121D8D0A621
Other forum [Profile] [PM]
Display posts from previous:    
Reply to topic

The time now is: Today 18:14

All times are GMT + 3 Hours



You cannot post new topics in this forum
You cannot reply to topics in this forum
You cannot edit your posts in this forum
You cannot delete your posts in this forum
You cannot vote in polls in this forum
You cannot attach files in this forum
You cannot download files in this forum