Сегодня идет свободное скачивание без начисления Download

Кидалы / The Grifters (1990) [H.264/720р-LQ] BDRip

Ответить на тему
 
Автор
Сообщение

Varius ®

Пол:

Стаж: 6 лет 8 месяцев

Сообщений: 3921

Откуда: Hell

Торрент-статистика

Пост 05-Фев-2012 19:48

[Цитировать]

Кидалы / The Grifters (1990) [H.264/720р-LQ] BDRip-«Seduction. Betrayal. Murder. Who's Conning Who?»- Русское название: Кидалы
Оригинальное название: The Grifters
Год выпуска: 1990
Жанр: Триллер, Драма, Криминал
Описание фильма:
Искусные аферисты зарабатывают на жизнь в строгом соответствии со своей "специализацией". Изящная, сексапильная Майра хочет заполучить себе в партнеры Роя и вместе с ним оттачивать мастерство аферы.
Опытная Лилли, прошедшая огонь, воду и медные трубы, также имеет виды на Роя. Кто из соперниц победит в борьбе, в которой на карте поставлено все, включая их жизни?
Режиссер: Стивен Фрирз
Актеры: Анджелика Хьюстон, Джон Кьюсак, Аннетт Бенинг, Жан Манро, Роберт Вимс, Стивен Тоболовски, Джимми Нунан, Ричард Холден, Генри Джонс, Майкл Ласкин, Эдди Джонс, Сэнди Бэрон, Лу Хэнкок, Гейлард Сартейн, Ноэль Харлинг, Иветт Солер, Пэт Хингл, Пол Адельштейн, Джереми Пивен, Грегори Спорледер
Продолжительность: 01:50:41
Перевод: Многоголосый закадровый
Субтитры: Отсутствуют- -Видеокодек: MPEG-4 AVC/H.264
Битрейт видео: ~2448 kb/s
Размер кадра: 1280x688
Качество видео: BDRip
Аудиокодек: AC3 5.1
Битрейт аудио: 320 Kbps
Сэмпл: Скачать

Знаете ли вы, что...

•Лилли Диллон и Майра Лэнгтри — разборная солянка из имени актрисы 19-го века Лилли Лэнгтри.
• Роль Лилли могли сыграть Шер, Мишель Пфайффер, Сисси Спэйсек и Мелани Гриффит.

MI

Код:
General
Полное имя                       : H:\Grifters_720p, BDRip.mkv
Формат                           : Matroska
Размер файла                     : 2.18 GiB
Продолжительность                : 1h 50mn
Общий поток                      : 2 825 Kbps
Дата кодирования                 : UTC 2012-02-03 08:19:40
Программа кодирования            : mkvmerge v4.9.1 ('Ich will') сборка от Jul 11 2011 23:53:15
Библиотека кодирования           : libebml v1.2.1 + libmatroska v1.1.1
Video
Идентификатор                    : 1
Формат                           : AVC
Формат/Информация                : Advanced Video Codec
Профайл формата                  : [email protected]
Параметры CABAC формата          : Yes
Параметры ReFrames формата       : 2 frames
Режим смешивания                 : Container [email protected]
Идентификатор кодека             : V_MPEG4/ISO/AVC
Продолжительность                : 1h 50mn
Битрейт                          : 2 448 Kbps
Номинальный битрейт              : 2 505 Kbps
Ширина                           : 1 280 pixels
Высота                           : 688 pixels
Соотношение кадра                : 1.860
Режим частоты кадров             : Variable
Частота кадров                   : 24.000 fps
Разрешение                       : 8 bits
Колориметрия                     : 4:2:0
Тип развёртки                    : Progressive
Бит/(Пиксели*Кадры)              : 0.116
Размер потока                    : 1.89 GiB (87%)
Заголовок                        : Кидалы.720p, BDRip.Element_team.org
Библиотека кодирования           : x264 core 112 r1834 a51816a
Настройки программы              : cabac=1 / ref=2 / deblock=1:0:0 / analyse=0x3:0x113 / me=hex / subme=6 / psy=1 / psy_rd=1.00:0.00 / mixed_ref=0 / me_range=16 / chroma_me=1 / trellis=0 / 8x8dct=1 / cqm=0 / deadzone=21,11 / fast_pskip=1 / chroma_qp_offset=-2 / threads=8 / sliced_threads=0 / nr=0 / decimate=1 / interlaced=0 / constrained_intra=0 / bframes=3 / b_pyramid=0 / b_adapt=1 / b_bias=0 / direct=3 / weightb=1 / open_gop=0 / weightp=2 / keyint=250 / keyint_min=25 / scenecut=40 / intra_refresh=0 / rc_lookahead=40 / rc=2pass / mbtree=1 / bitrate=2505 / ratetol=1.0 / qcomp=0.60 / qpmin=10 / qpmax=51 / qpstep=4 / cplxblur=20.0 / qblur=0.5 / ip_ratio=1.41 / aq=1:1.00
Audio
Идентификатор                    : 2
Формат                           : AC-3
Формат/Информация                : Audio Coding 3
Идентификатор кодека             : A_AC3
Продолжительность                : 1h 50mn
Вид битрейта                     : Constant
Битрейт                          : 320 Kbps
Канал(ы)                         : 6 channels
Расположение каналов             : Front: L C R, Surround: L R, LFE
Частота                          : 48.0 KHz
Размер потока                    : 253 MiB (11%)
Заголовок                        : Перевод 1
Язык                             : Russian
                      : English
-Cкриншоты из фильма:
         
-

_________________

Создавая "Новую папку", не считайте себя Создателем - это право Вам дано Админом


Вне форума [Профиль] [ЛС]
Показать сообщения:    
Ответить на тему

Текущее время: Сегодня 02:55

Часовой пояс: GMT + 3



Вы не можете начинать темы
Вы не можете отвечать на сообщения
Вы не можете редактировать свои сообщения
Вы не можете удалять свои сообщения
Вы не можете голосовать в опросах
Вы не можете прикреплять файлы к сообщениям
Вы не можете скачивать файлы