Today is a free download without charge Download

Авторадио. Большая Дискотека 80-х (2014.11.29.,Концерт) WEBRip

Reply to topic
 
Author
Message

sashau ®

Gender:

Longevity: 10 years

Posts: 3497

Торрент-статистика

Post 02-Dec-2014 16:00

[Quote]

Авторадио. Большая Дискотека 80-х - Русское название: Авторадио. Большая Дискотека 80-х
Год выпуска: 2014
Жанр: Концерт
Описание:
Главное музыкальное событие осени - XIII международный музыкальный фестиваль «Авторадио» «Дискотека 80-х» - состоялся 29 ноября 2014 года в СК Олимпийский».
«Авторадио» снова подарило всем ценителям хорошей музыки фантастическое, захватывающее шоу, в котором гармонично сочетались зажигательные ритмы 80-х и ультрасовременная сценография, эффектные постановки и оригинальные творческие находки. Фестиваль посетили 30 тысяч зрителей.
Неподвластные времени хиты исполнили Thomas Anders, C.C. Catch, Eruption, Silent Circle, Opus, Lian Ross, Riccardo Fogli, Pupo, Ottawan, Ricchi e Poveri, Village People, а также Александр Кутиков и группа «Нюанс», Владимир Пресняков, Андрей Державин, Олег Газманов, Дмитрий Маликов, Валерий Сюткин, Игорь Николаев, Сергей Минаев, Владимир Маркин, Рома Жуков, Сергей Беликов, Виктор Салтыков, Игорь Корнелюк, Юрий Лоза, Игорь Саруханов, Александр Иванов и группа «Рондо», «Кар-Мэн», ВИА «Здравствуй, песня», «Веселые ребята», «Земляне».
Продолжительность: ~ 04:05:01
Видеокодек: XviD
Битрейт видео: ~2000 kb/s
Размер кадра: 720 x 400
Качество видео: WEBRip
Аудиокодек: AC-3, 2ch.
Битрейт аудио: 256 kb/s

MediaInfo

Формат : AVI
Формат/Информация : Audio Video Interleave
Профиль формата : OpenDML
Размер файла : 3,87 Гбайт
Продолжительность : 4 ч. 5 м.
Общий поток : 2263 Кбит/сек
Программа кодирования : TMPGEnc Video Mastering Works 5 Version. 5.0.6.38
Библиотека кодирования : TMPGEnc Video Mastering Works 5 Version. 5.0.6.38
Видео
Идентификатор : 0
Формат : MPEG-4 Visual
Профиль формата : Advanced [email protected]
Параметр BVOP формата : 2
Параметр QPel формата : Нет
Параметр GMC формата : Без точки перехода
Параметр матрицы формата : Default (H.263)
Режим смешивания : Сжатый битовый поток
Идентификатор кодека : XVID
Идентификатор кодека/Подсказка : XviD
Продолжительность : 4 ч. 5 м.
Битрейт : 2000 Кбит/сек
Ширина : 720 пикселей
Высота : 400 пикселей
Соотношение сторон : 16:9
Частота кадров : 29,970 кадров/сек
Цветовое пространство : YUV
Субдискретизация насыщенности : 4:2:0
Битовая глубина : 8 бит
Тип развёртки : Прогрессивная
Метод сжатия : С потерями
Бит/(Пиксели*Кадры) : 0.232
Размер потока : 3,42 Гбайт (88%)
Библиотека кодирования : XviD 64
Аудио
Идентификатор : 1
Формат : AC-3
Формат/Информация : Audio Coding 3
Расширение режима : CM (complete main)
Параметр Endianness формата : Big
Идентификатор кодека : 2000
Продолжительность : 4 ч. 5 м.
Вид битрейта : Постоянный
Битрейт : 256 Кбит/сек
Каналы : 2 канала
Расположение каналов : Front: L R
Частота : 48,0 КГц
Битовая глубина : 16 бит
Метод сжатия : С потерями
Размер потока : 449 Мбайт (11%)
Выравнивание : Соединение по промежуткам
Продолжительность промежутка : 240 мс. (7,19 видеокадров)
Время предзагрузки промежутка : 480 мс.

Треклист

01. Eruption - One way ticket
02. Виктор Салтыков - Белая ночь
03. Игорь Николаев - Такси
04. Ottawan - D.I.S.C.O
05. Ottawan - Hands up
06.Сергей Минаев - Карнавал
07. Рома Жуков - Я люблю вас девочки, Я люблю вас мальчики
08. Ricchi E Poveri - Mamma Maria
09. Ricchi E Poveri - Cosa Sei
10. Игорь Саруханов - Поворот
11. Андрей Державин - Алиса
12. Silent Circle - Touch in the night
13. Silent Circle - Stop the rain in the night
14. Здравствуй, песня - Просто уходило лето
15. Земляне - Трава у дома
16. Riccardo Fogli - Storie Di Tutti I Giorno
17. Riccardo Fogli - Malinconia
18. Дмитрий Маликов - Брачный кортеж
19. Валерий Сюткин - Черный кот
20. Валерий Сюткин - Московский бит
21.Opus - Life is Life
22. Игорь Корнелюк - Мало ли
23. Юрий Лоза - Плот
24. Lian Ross - Say You'll Never
25. Сергей Беликов - Радуга
26. Александр Иванов и гр.Рондо - Бледный Бармен
27. Александр Иванов и гр.Рондо - Я буду помнить
28. Pupo - Lo Devo Solo A Te
29. Pupo - Gelato Al Cioccolato
30. Веселые ребята - Не волнуйтесь тетя
31. Веселые ребята - Розовые розы (Светке Соколовой)
32. Владимир Маркин - Сиреневый туман
33. Владимир Пресняков - Не умирай любовь
34. Владимир Пресняков - Недотрога
35. Village people - Megamix
36. Village people - Y.M.C.A
37. Олег Газманов - Свежий ветер
38. Олег Газманов - Сделаны в СССР
39. Александр Кутиков и гр.Ньюанс - Помечтать
40. Александр Кутиков и гр.Ньюанс - Поворот
41. Кар-Мэн - Bad Russian
42. Кар-Мэн - Лондон гудбай
43. C.C. Catch - Megamix
44. C.C. Catch - Heaven and hell
45. Tomas Anders - Brother Louie
46. Tomas Anders - You Can Win, If You Want
47. Tomas Anders - You're My Heart You're My Soul (acoustic)
48. Tomas Anders - You're My Heart You're My Soul
Скриншоты:                    
Other forum [Profile] [PM]
Similar theme
Forum Topic Author Torrent Replies Last Post
./templates/default/images/folder_dl.gif Медицина и Здоровье Анатолий Ситель | Ария для спины. Авторская программа, чтобы никогда не болели суставы (2015) [FB2] moralis
1 | 0

0 | 1871

13

2016-03-11 18:44
moralis Latest
./templates/default/images/folder_dl.gif Сборники программ BELOFF 2020 [Ru] (Авторская раздача) Орлов Владимир
1 | 0

1 | 846

1

2020-02-06 05:57
nikola120 Latest
Display posts from previous:    
Reply to topic

The time now is: Today 22:42

All times are GMT + 3 Hours



You cannot post new topics in this forum
You cannot reply to topics in this forum
You cannot edit your posts in this forum
You cannot delete your posts in this forum
You cannot vote in polls in this forum
You cannot attach files in this forum
You cannot download files in this forum